Login
Username:
Password:
Remember Me:
[Signup]
[Recover Account]
Friends
BTScene
Friendly site

Ale Torrenty Team
Friendly site

Anime RG
Friendly site

KaranPC
Friendly site

P2PDL.com
Friendly site

Free Tutorials & Courses
Friendly site
Torrent Details For "Annabelle.2.Creation.2017.1080p.BluRay.x264-SPARKS"

Annabelle.2.Creation.2017.1080p.BluRay.x264-SPARKS

To download this torrent, you need a BitTorrent client: Vuze or BTGuard
Download this torrent
Download using Magnet Link

Direct Download - no client needed

Download Faster - High Speed Download

Health:
Seeds: 13
Leechers: 13
Completed:
Last Checked: 11-10-2017 23:30:36

Uploader Reputation points : 120036
External: Torrent




Write a Review for the Uploader:   55   Say Thanks with one good review:


Details
Name:Annabelle.2.Creation.2017.1080p.BluRay.x264-SPARKS
Description:
Annabelle.2.Creation.2017.1080p.BluRay.x264-SPARKS

ImDb: http://www.imdb.com/title/tt7284596



Complete name                            : annabelle.2.creation.2017.1080p.bluray.x264-sparks.mkv
Format                                   : Matroska
Format version                           : Version 4 / Version 2
File size                                : 7.65 GiB
Duration                                 : 1 h 49 min
Overall bit rate                         : 9 983 kb/s
Encoded date                             : UTC 2017-10-11 21:21:11
Writing application                      : mkvmerge v16.0.0 ('Protest') 64-bit
Writing library                          : libebml v1.3.5 + libmatroska v1.4.8

Video
ID                                       : 1
Format                                   : AVC
Format/Info                              : Advanced Video Codec
Format profile                           : [email protected]
Format settings, CABAC                   : Yes
Format settings, ReFrames                : 5 frames
Codec ID                                 : V_MPEG4/ISO/AVC
Duration                                 : 1 h 49 min
Bit rate                                 : 9 343 kb/s
Width                                    : 1 920 pixels
Height                                   : 800 pixels
Display aspect ratio                     : 2.40:1
Frame rate mode                          : Constant
Frame rate                               : 23.976 (24000/1001) FPS
Color space                              : YUV
Chroma subsampling                       : 4:2:0
Bit depth                                : 8 bits
Scan type                                : Progressive
Bits/(Pixel*Frame)                       : 0.254
Stream size                              : 7.16 GiB (94%)
Writing library                          : x264 core 152 r2851 ba24899
Encoding settings                        : cabac=1 / ref=5 / deblock=1:0:0 / analyse=0x3:0x133 / me=umh / subme=7 / psy=1 / psy_rd=1.00:0.00 / mixed_ref=1 / me_range=16 / chroma_me=1 / trellis=1 / 8x8dct=1 / cqm=0 / deadzone=21,11 / fast_pskip=0 / chroma_qp_offset=-2 / threads=24 / lookahead_threads=4 / sliced_threads=0 / nr=0 / decimate=1 / interlaced=0 / bluray_compat=0 / constrained_intra=0 / bframes=3 / b_pyramid=2 / b_adapt=1 / b_bias=0 / direct=1 / weightb=1 / open_gop=0 / weightp=2 / keyint=250 / keyint_min=23 / scenecut=40 / intra_refresh=0 / rc_lookahead=40 / rc=2pass / mbtree=1 / bitrate=9343 / ratetol=1.0 / qcomp=0.60 / qpmin=0 / qpmax=69 / qpstep=4 / cplxblur=20.0 / qblur=0.5 / ip_ratio=1.40 / aq=1:1.00
Language                                 : English
Default                                  : Yes
Forced                                   : No

Audio
ID                                       : 2
Format                                   : AC-3
Format/Info                              : Audio Coding 3
Format settings, Endianness              : Big
Codec ID                                 : A_AC3
Duration                                 : 1 h 49 min
Bit rate mode                            : Constant
Bit rate                                 : 640 kb/s
Channel(s)                               : 6 channels
Channel positions                        : Front: L C R, Side: L R, LFE
Sampling rate                            : 48.0 kHz
Frame rate                               : 31.250 FPS (1536 spf)
Bit depth                                : 16 bits
Compression mode                         : Lossy
Stream size                              : 502 MiB (6%)
Language                                 : English
Service kind                             : Complete Main
Default                                  : Yes
Forced                                   : No






Click To View Screenshot

Click To View Screenshot

Click To View Screenshot
YouTube Video:
Category:Movies
Language:English  English
Total Size:7.65 GB
Info Hash:51AE8D7E5A5A481649E0EF401B4B72DD15FAE6D3
Added By:Simmoncelli VIPMovie Pirate
Date Added:11-10-2017 23:16:49
Torrent Status:Torrent Verified


Ratings:Not Yet Rated (Log in to rate it)


Tracker:
udp://tracker.coppersurfer.tk:6969/announce

This Torrent also has backup trackers
URLSeedersLeechersCompleted
udp://tracker.coppersurfer.tk:6969/announce110
udp://tracker.pirateparty.gr:6969/announce110
udp://shadowshq.yi.org:6969/announce110
udp://eddie4.nl:6969/announce110
udp://tracker.leechers-paradise.org:6969/announce110
udp://tracker.opentrackr.org:1337/announce110
udp://p4p.arenabg.ch:1337/announce110
udp://p4p.arenabg.com:1337/announce110
udp://9.rarbg.me:2710/announce110
udp://9.rarbg.to:2710/announce110
udp://ipv4.tracker.harry.lu:80/announce110
udp://tracker.grepler.com:6969/announce000
udp://public.popcorn-tracker.org:6969/announce110
udp://tracker.opentrackr.org:1337/announce110
udp://tracker.zer0day.to:1337/announce000


File List: 





Comments
No comments still posted