Login
Username:
Password:
Remember Me:
[Signup]
[Recover Account]
Friends
BTScene
Friendly site

Ale Torrenty Team
Friendly site

Anime RG
Friendly site

KaranPC
Friendly site

P2PDL.com
Friendly site

Free Tutorials & Courses
Friendly site
Torrent Details For "Annabelle 2 Creation 2017 720p BluRay x264 AAC 5 1 ESub"

Annabelle 2 Creation 2017 720p BluRay x264 AAC 5 1 ESub

To download this torrent, you need a BitTorrent client: Vuze or BTGuard
Download this torrent
Download using Magnet Link

Direct Download - no client needed

Download Faster - High Speed Download

Health:
Seeds: 156
Leechers: 403
Completed: 101 
Last Checked: 12-10-2017 10:01:40

Uploader Reputation points : 514
External: Torrent




Write a Review for the Uploader:   0   Say Thanks with one good review:


Details
Name:Annabelle 2 Creation 2017 720p BluRay x264 AAC 5 1 ESub
Description:

General
Format                                   : Matroska
Format version                           : Version 4 / Version 2
File size                                : 1.06 GiB
Duration                                 : 1 h 49 min
Overall bit rate                         : 1 385 kb/s

Video
ID                                       : 1
Format                                   : AVC
Format/Info                              : Advanced Video Codec
Format profile                           : [email protected]
Format settings                          : CABAC / 4 Ref Frames
Format settings, CABAC                   : Yes
Format settings, RefFrames               : 4 frames
Codec ID                                 : V_MPEG4/ISO/AVC
Duration                                 : 1 h 49 min
Bit rate                                 : 1 200 kb/s
Width                                    : 1 280 pixels
Height                                   : 536 pixels
Display aspect ratio                     : 2.40:1
Frame rate mode                          : Constant
Frame rate                               : 23.976 (23976/1000) FPS
Color space                              : YUV
Chroma subsampling                       : 4:2:0
Bit depth                                : 8 bits
Scan type                                : Progressive
Bits/(Pixel*Frame)                       : 0.073
Stream size                              : 935 MiB (86%)
Writing library                          : x264 core 148 r2643 5c65704
Language                                 : English
Default                                  : Yes
Forced                                   : No

Audio
ID                                       : 2
Format                                   : AAC
Format/Info                              : Advanced Audio Codec
Format profile                           : LC
Codec ID                                 : A_AAC-2
Duration                                 : 1 h 49 min
Bit rate                                 : 192 kb/s
Channel(s)                               : 6 channels
Channel positions                        : Front: L C R, Side: L R, LFE
Sampling rate                            : 48.0 kHz
Frame rate                               : 46.875 FPS (1024 SPF)
Compression mode                         : Lossy
Stream size                              : 151 MiB (14%)
Language                                 : English
Default                                  : Yes
Forced                                   : No

Text
ID                                       : 3
Format                                   : UTF-8
Codec ID                                 : S_TEXT/UTF8
Codec ID/Info                            : UTF-8 Plain Text
Duration                                 : 1 h 40 min
Bit rate                                 : 25 b/s
Count of elements                        : 715
Stream size                              : 19.0 KiB (0%)
Language                                 : English
Default                                  : Yes
Forced                                   : No

Menu
00:00:00.000                             : en:00:00:00.000 / en:00:00:00.000
00:11:25.351                             : en:00:11:25.351 / en:00:11:25.351
00:20:35.067                             : en:00:20:35.067 / en:00:20:35.067
00:30:33.290                             : en:00:30:33.290 / en:00:30:33.290
00:42:03.604                             : en:00:42:03.604 / en:00:42:03.604
00:52:39.239                             : en:00:52:39.239 / en:00:52:39.239
01:03:12.497                             : en:01:03:12.497 / en:01:03:12.497
01:13:14.682                             : en:01:13:14.682 / en:01:13:14.682
01:23:55.614                             : en:01:23:55.614 / en:01:23:55.614
01:33:19.302                             : en:01:33:19.302 / en:01:33:19.302
01:43:27.618                             : en:01:43:27.618 / en:01:43:27.618






YouTube Video:
Category:Movies
Language:English  English
Total Size:1.06 GB
Info Hash:31AE5C5C6553068A3F8CAC7842E9E6B6EB9A30C4
Added By:MovieFreak
Date Added:12-10-2017 07:42:57
Torrent Status:Unverified Torrent


Ratings:Not Yet Rated (Log in to rate it)


Tracker:
http://ipv4.tracker.harry.lu/announce

This Torrent also has backup trackers
URLSeedersLeechersCompleted
http://ipv4.tracker.harry.lu/announce123313
http://ipv4.tracker.harry.lu:80/announce123313
udp://tracker.pirateparty.gr:6969/announce10279
http://tracker.devil-torrents.pl:80/announce11290
http://tracker.devil-torrents.pl/announce11290
http://open.kickasstracker.com/announce13340
http://open.kickasstracker.com:443/announce13340
udp://p4p.arenabg.com:1337/announce10254
udp://9.rarbg.me:2770/announce112616
udp://9.rarbg.com:2740/announce112616
udp://9.rarbg.to:2750/announce112616
udp://tracker.coppersurfer.tk:6969/announce10279
udp://tracker.leechers-paradise.org:6969/announce10255
udp://tracker.zer0day.to:1337/announce000
http://tracker.devil-torrents.pl/announce11290


File List: 





Comments
No comments still posted