Login
Username:
Password:
Remember Me:
[Signup]
[Recover Account]
Friends
BTScene
Friendly site

Ale Torrenty Team
Friendly site

Anime RG
Friendly site

KaranPC
Friendly site

P2PDL.com
Friendly site

Free Tutorials & Courses
Friendly site
Torrent Details For "Annabelle 2 Creation 2017 720p BRRip x264 AAC 2 0"

Annabelle 2 Creation 2017 720p BRRip x264 AAC 2 0

To download this torrent, you need a BitTorrent client: Vuze or BTGuard
Download this torrent
Download using Magnet Link

Direct Download - no client needed

Download Faster - High Speed Download

Health:
Seeds: 142
Leechers: 128
Completed: 58 
Last Checked: 12-10-2017 10:01:37

Uploader Reputation points : 514
External: Torrent




Write a Review for the Uploader:   0   Say Thanks with one good review:


Details
Name:Annabelle 2 Creation 2017 720p BRRip x264 AAC 2 0
Description:

General
Format                                   : Matroska
Format version                           : Version 4 / Version 2
File size                                : 778 MiB
Duration                                 : 1 h 49 min
Overall bit rate                         : 991 kb/s

Video
ID                                       : 1
Format                                   : AVC
Format/Info                              : Advanced Video Codec
Format profile                           : [email protected]
Format settings                          : CABAC / 4 Ref Frames
Format settings, CABAC                   : Yes
Format settings, RefFrames               : 4 frames
Codec ID                                 : V_MPEG4/ISO/AVC
Duration                                 : 1 h 49 min
Bit rate                                 : 900 kb/s
Width                                    : 1 280 pixels
Height                                   : 536 pixels
Display aspect ratio                     : 2.40:1
Frame rate mode                          : Constant
Frame rate                               : 23.976 (23976/1000) FPS
Color space                              : YUV
Chroma subsampling                       : 4:2:0
Bit depth                                : 8 bits
Scan type                                : Progressive
Bits/(Pixel*Frame)                       : 0.055
Stream size                              : 701 MiB (90%)
Writing library                          : x264 core 148 r2643 5c65704
Language                                 : English
Default                                  : Yes
Forced                                   : No

Audio
ID                                       : 2
Format                                   : AAC
Format/Info                              : Advanced Audio Codec
Format profile                           : LC
Codec ID                                 : A_AAC-2
Duration                                 : 1 h 49 min
Bit rate                                 : 96.0 kb/s
Channel(s)                               : 2 channels
Channel positions                        : Front: L R
Sampling rate                            : 44.1 kHz
Frame rate                               : 43.066 FPS (1024 SPF)
Compression mode                         : Lossy
Stream size                              : 75.3 MiB (10%)
Language                                 : English
Default                                  : Yes
Forced                                   : No

Menu
00:00:00.000                             : en:00:00:00.000 / en:00:00:00.000
00:11:25.351                             : en:00:11:25.351 / en:00:11:25.351
00:20:35.067                             : en:00:20:35.067 / en:00:20:35.067
00:30:33.290                             : en:00:30:33.290 / en:00:30:33.290
00:42:03.604                             : en:00:42:03.604 / en:00:42:03.604
00:52:39.239                             : en:00:52:39.239 / en:00:52:39.239
01:03:12.497                             : en:01:03:12.497 / en:01:03:12.497
01:13:14.682                             : en:01:13:14.682 / en:01:13:14.682
01:23:55.614                             : en:01:23:55.614 / en:01:23:55.614
01:33:19.302                             : en:01:33:19.302 / en:01:33:19.302
01:43:27.618                             : en:01:43:27.618 / en:01:43:27.618





YouTube Video:
Category:Movies
Language:English  English
Total Size:778.07 MB
Info Hash:069ABF52168C058086B0D50703914E9DD80C6F09
Added By:MovieFreak
Date Added:12-10-2017 06:55:08
Torrent Status:Unverified Torrent


Ratings:Not Yet Rated (Log in to rate it)


Tracker:
http://ipv4.tracker.harry.lu/announce

This Torrent also has backup trackers
URLSeedersLeechersCompleted
http://ipv4.tracker.harry.lu/announce9136
http://ipv4.tracker.harry.lu:80/announce9136
udp://tracker.pirateparty.gr:6969/announce1387
http://tracker.devil-torrents.pl:80/announce970
http://tracker.devil-torrents.pl/announce970
http://open.kickasstracker.com/announce11140
http://open.kickasstracker.com:443/announce11140
udp://p4p.arenabg.com:1337/announce1162
udp://9.rarbg.me:2770/announce989
udp://9.rarbg.com:2740/announce989
udp://9.rarbg.to:2750/announce989
udp://tracker.coppersurfer.tk:6969/announce1387
udp://tracker.leechers-paradise.org:6969/announce1173
udp://tracker.zer0day.to:1337/announce000
http://tracker.devil-torrents.pl/announce970


File List: 





Comments
No comments still posted