Login
Username:
Password:
Remember Me:
[Signup]
[Recover Account]
Friends
BTScene
Friendly site

Ale Torrenty Team
Friendly site

Anime RG
Friendly site

KaranPC
Friendly site

P2PDL.com
Friendly site

Free Tutorials & Courses
Friendly site
Torrent Details For "Corruption.1968.US.Version.720p.BluRay.x264-REGRET"

Corruption.1968.US.Version.720p.BluRay.x264-REGRET

To download this torrent, you need a BitTorrent client: Vuze or BTGuard
Download this torrent
Download using Magnet Link





Health:
Seeds: 13
Leechers: 0
Completed:
Last Checked: 13-10-2017 01:31:10

Uploader Reputation points : 123802
External: Torrent




Write a Review for the Uploader:   60   Say Thanks with one good review:


Details
Name:Corruption.1968.US.Version.720p.BluRay.x264-REGRET
Description:
Corruption.1968.US.Version.720p.BluRay.x264-REGRET

ImDb: http://www.imdb.com/title/tt0061520



Complete name                            : Corruption.1968.US.Version.720p.BluRay.x264-REGRET.mkv
Format                                   : Matroska
Format version                           : Version 4 / Version 2
File size                                : 3.27 GiB
Duration                                 : 1 h 31 min
Overall bit rate mode                    : Variable
Overall bit rate                         : 5 123 kb/s
Encoded date                             : UTC 2017-10-01 21:06:02
Writing application                      : mkvmerge v15.0.0 ('Duel with the Devil') 64-bit
Writing library                          : libebml v1.3.5 + libmatroska v1.4.5

Video
ID                                       : 1
Format                                   : AVC
Format/Info                              : Advanced Video Codec
Format profile                           : [email protected]
Format settings, CABAC                   : Yes
Format settings, ReFrames                : 5 frames
Codec ID                                 : V_MPEG4/ISO/AVC
Duration                                 : 1 h 31 min
Bit rate                                 : 4 865 kb/s
Width                                    : 1 280 pixels
Height                                   : 696 pixels
Display aspect ratio                     : 1.85:1
Frame rate mode                          : Constant
Frame rate                               : 23.976 (24000/1001) FPS
Color space                              : YUV
Chroma subsampling                       : 4:2:0
Bit depth                                : 8 bits
Scan type                                : Progressive
Bits/(Pixel*Frame)                       : 0.228
Stream size                              : 3.11 GiB (95%)
Writing library                          : x264 core 152 r2851 ba24899
Encoding settings                        : cabac=1 / ref=5 / deblock=1:-3:-3 / analyse=0x3:0x113 / me=umh / subme=8 / psy=1 / psy_rd=1.00:0.25 / mixed_ref=1 / me_range=24 / chroma_me=1 / trellis=1 / 8x8dct=1 / cqm=0 / deadzone=21,11 / fast_pskip=1 / chroma_qp_offset=-4 / threads=22 / lookahead_threads=3 / sliced_threads=0 / nr=0 / decimate=1 / interlaced=0 / bluray_compat=0 / constrained_intra=0 / bframes=3 / b_pyramid=2 / b_adapt=1 / b_bias=0 / direct=3 / weightb=1 / open_gop=0 / weightp=2 / keyint=240 / keyint_min=24 / scenecut=40 / intra_refresh=0 / rc_lookahead=50 / rc=2pass / mbtree=1 / bitrate=4865 / ratetol=1.0 / qcomp=0.60 / qpmin=0 / qpmax=69 / qpstep=4 / cplxblur=20.0 / qblur=0.5 / ip_ratio=1.40 / aq=1:0.75
Default                                  : Yes
Forced                                   : No

Audio
ID                                       : 2
Format                                   : FLAC
Format/Info                              : Free Lossless Audio Codec
Codec ID                                 : A_FLAC
Duration                                 : 1 h 31 min
Bit rate mode                            : Variable
Bit rate                                 : 257 kb/s
Channel(s)                               : 1 channel
Channel positions                        : Front: C
Sampling rate                            : 48.0 kHz
Frame rate                               : 11.719 FPS (4096 spf)
Bit depth                                : 16 bits
Stream size                              : 168 MiB (5%)
Writing library                          : libFLAC 1.2.1 (UTC 2007-09-17)
Language                                 : English
Default                                  : Yes
Forced                                   : No

Menu
00:00:00.000                             : en:00:00:00.000
00:03:39.219                             : en:00:03:39.219
00:08:56.286                             : en:00:08:56.286
00:10:51.818                             : en:00:10:51.818
00:12:28.831                             : en:00:12:28.831
00:14:46.928                             : en:00:14:46.928
00:17:06.859                             : en:00:17:06.859
00:18:47.877                             : en:00:18:47.877
00:21:20.696                             : en:00:21:20.696
00:26:55.948                             : en:00:26:55.948
00:29:18.173                             : en:00:29:18.173
00:32:35.537                             : en:00:32:35.537
00:33:09.321                             : en:00:33:09.321
00:37:41.676                             : en:00:37:41.676
00:39:02.715                             : en:00:39:02.715
00:41:06.381                             : en:00:41:06.381
00:45:58.172                             : en:00:45:58.172
00:50:11.342                             : en:00:50:11.342
00:53:39.633                             : en:00:53:39.633
00:56:40.898                             : en:00:56:40.898
01:00:15.695                             : en:01:00:15.695
01:05:19.749                             : en:01:05:19.749
01:07:48.648                             : en:01:07:48.648
01:12:23.005                             : en:01:12:23.005
01:13:25.401                             : en:01:13:25.401
01:17:02.034                             : en:01:17:02.034
01:19:44.279                             : en:01:19:44.279
01:22:43.542                             : en:01:22:43.542
01:24:45.080                             : en:01:24:45.080
01:25:41.011                             : en:01:25:41.011
01:29:07.342                             : en:01:29:07.342
01:30:31.676                             : en:01:30:31.676






Click To View Screenshot

Click To View Screenshot

Click To View Screenshot
YouTube Video:
Category:Movies
Language:English  English
Total Size:3.27 GB
Info Hash:9B31CC9049ABCBB8C1ADF49813ECC8374890606A
Added By:Simmoncelli VIPMovie Pirate
Date Added:13-10-2017 01:27:24
Torrent Status:Torrent Verified


Ratings:Not Yet Rated (Log in to rate it)


Tracker:
udp://tracker.coppersurfer.tk:6969/announce

This Torrent also has backup trackers
URLSeedersLeechersCompleted
udp://tracker.coppersurfer.tk:6969/announce100
udp://tracker.pirateparty.gr:6969/announce100
udp://shadowshq.yi.org:6969/announce100
udp://eddie4.nl:6969/announce100
udp://tracker.leechers-paradise.org:6969/announce100
udp://tracker.opentrackr.org:1337/announce100
udp://p4p.arenabg.ch:1337/announce100
udp://p4p.arenabg.com:1337/announce100
udp://9.rarbg.me:2710/announce100
udp://9.rarbg.to:2710/announce100
udp://ipv4.tracker.harry.lu:80/announce100
udp://tracker.grepler.com:6969/announce000
udp://public.popcorn-tracker.org:6969/announce100
udp://tracker.opentrackr.org:1337/announce100
udp://tracker.zer0day.to:1337/announce000


File List: 



Warning! Do not Download Torrents Without a VPN!
Your IP Address is .   Location is
Your Internet Provider and Government can track your torrent Activity! Hide your IP ADDRESS with a VPN!
We strongly recommend using SpyOFF VPN to anonymize your Torrenting.It's FREE!
START YOUR FREE TRIAL NOW!


Comments
No comments still posted