Login
Username:
Password:
Remember Me:
[Signup]
[Recover Account]
Friends
BTScene
Friendly site

Ale Torrenty Team
Friendly site

Anime RG
Friendly site

KaranPC
Friendly site

P2PDL.com
Friendly site

Free Tutorials & Courses
Friendly site
Torrent Details For "Doubt.S01E12.iNTERNAL.720p.WEB.x264-BAMBOOZLE"

Doubt.S01E12.iNTERNAL.720p.WEB.x264-BAMBOOZLE

To download this torrent, you need a BitTorrent client: Vuze or BTGuard
Download this torrent
Download using Magnet Link

Direct Download - no client needed

Download Faster - High Speed Download

Health:
Seeds: 16
Leechers: 41
Completed: 11,121 
Last Checked: 29-09-2017 12:27:27

Uploader Reputation points : 123802
External: Torrent




Write a Review for the Uploader:   60   Say Thanks with one good review:
TV Info

Doubt

Doubt is an exciting and unconventional new legal drama about a prestigious boutique New York firm headed by a legal legend. The practice attracts top talent looking to prove themselves, including a brilliant lawyer who finds herself falling in love with a client—a prominent pediatric surgeon accused of a brutal murder committed in his youth.



Details
Name:Doubt.S01E12.iNTERNAL.720p.WEB.x264-BAMBOOZLE
Description:
Doubt.S01E12.iNTERNAL.720p.WEB.x264-BAMBOOZLE



Complete name                            : doubt.s01e12.internal.720p.web.x264-bamboozle.mkv
Format                                   : Matroska
Format version                           : Version 4 / Version 2
File size                                : 1.09 GiB
Duration                                 : 43 min 21 s
Overall bit rate                         : 3 588 kb/s
Encoded date                             : UTC 2017-08-13 04:04:36
Writing application                      : mkvmerge v8.8.0 ('Wind at my back') 64bit
Writing library                          : libebml v1.3.3 + libmatroska v1.4.4

Video
ID                                       : 1
Format                                   : AVC
Format/Info                              : Advanced Video Codec
Format profile                           : [email protected]
Format settings, CABAC                   : Yes
Format settings, ReFrames                : 4 frames
Format settings, GOP                     : M=4, N=24
Codec ID                                 : V_MPEG4/ISO/AVC
Duration                                 : 43 min 21 s
Bit rate                                 : 3 468 kb/s
Width                                    : 1 280 pixels
Height                                   : 720 pixels
Display aspect ratio                     : 16:9
Frame rate mode                          : Variable
Frame rate                               : 23.976 (23976/1000) FPS
Color space                              : YUV
Chroma subsampling                       : 4:2:0
Bit depth                                : 8 bits
Scan type                                : Progressive
Bits/(Pixel*Frame)                       : 0.157
Stream size                              : 1.05 GiB (96%)
Writing library                          : x264 core 148
Encoding settings                        : cabac=1 / ref=3 / deblock=1:0:0 / analyse=0x1:0x111 / me=hex / subme=7 / psy=1 / psy_rd=1.00:0.00 / mixed_ref=1 / me_range=16 / chroma_me=1 / trellis=1 / 8x8dct=0 / cqm=0 / deadzone=21,11 / fast_pskip=1 / chroma_qp_offset=-2 / threads=22 / lookahead_threads=3 / sliced_threads=0 / nr=0 / decimate=1 / interlaced=0 / bluray_compat=0 / constrained_intra=0 / bframes=3 / b_pyramid=2 / b_adapt=1 / b_bias=0 / direct=1 / weightb=1 / open_gop=0 / weightp=2 / keyint=24 / keyint_min=2 / scenecut=0 / intra_refresh=0 / rc_lookahead=24 / rc=abr / mbtree=1 / bitrate=3468 / ratetol=1.0 / qcomp=0.60 / qpmin=0 / qpmax=69 / qpstep=4 / vbv_maxrate=6936 / vbv_bufsize=6936 / nal_hrd=none / filler=0 / ip_ratio=1.40 / aq=1:1.00
Default                                  : Yes
Forced                                   : No

Audio
ID                                       : 2
Format                                   : AAC
Format/Info                              : Advanced Audio Codec
Format profile                           : LC
Codec ID                                 : A_AAC
Duration                                 : 43 min 21 s
Bit rate                                 : 126 kb/s
Channel(s)                               : 2 channels
Channel positions                        : Front: L R
Sampling rate                            : 44.1 kHz
Frame rate                               : 43.066 FPS (1024 spf)
Compression mode                         : Lossy
Stream size                              : 38.9 MiB (4%)
Default                                  : Yes
Forced                                   : No






Click To View Screenshot

Click To View Screenshot

Click To View Screenshot
YouTube Video:
Category:TV
Language:English  English
Total Size:1.09 GB
Info Hash:31FD5B340B05CE0EC4C82B1BD22ACFE2DCE9B0C2
Added By:Simmoncelli VIPMovie Pirate
Date Added:13-08-2017 05:15:40
Torrent Status:Torrent Verified


Ratings:Not Yet Rated (Log in to rate it)


Tracker:
udp://tracker.coppersurfer.tk:6969/announce

This Torrent also has backup trackers
URLSeedersLeechersCompleted
udp://tracker.coppersurfer.tk:6969/announce133,628
udp://tracker.pirateparty.gr:6969/announce133,628
udp://shadowshq.yi.org:6969/announce4319
udp://eddie4.nl:6969/announce4319
udp://tracker.leechers-paradise.org:6969/announce4319
udp://tracker.opentrackr.org:1337/announce0544
udp://p4p.arenabg.ch:1337/announce040
udp://p4p.arenabg.com:1337/announce040
udp://9.rarbg.me:2710/announce000
udp://9.rarbg.to:2710/announce000
udp://ipv4.tracker.harry.lu:80/announce000
udp://tracker.grepler.com:6969/announce000
udp://public.popcorn-tracker.org:6969/announce142,753
udp://tracker.opentrackr.org:1337/announce0544
udp://tracker.zer0day.to:1337/announce14967


File List: 





Comments
No comments still posted