Login
Username:
Password:
Remember Me:
[Signup]
[Recover Account]
Friends
BTScene
Friendly site

Ale Torrenty Team
Friendly site

Anime RG
Friendly site

KaranPC
Friendly site

P2PDL.com
Friendly site

Free Tutorials & Courses
Friendly site
Torrent Details For "Feed The Devil 2015 720p BluRay DD 5 1 x264"

Feed The Devil 2015 720p BluRay DD 5 1 x264

To download this torrent, you need a BitTorrent client: Vuze or BTGuard
Download this torrent
Download using Magnet Link

Direct Download - no client needed

Download Faster - High Speed Download

Health:
Seeds: 93
Leechers: 59
Completed: 109 
Last Checked: 13-10-2017 07:38:11

Uploader Reputation points : 504
External: Torrent




Write a Review for the Uploader:   0   Say Thanks with one good review:


Details
Name:Feed The Devil 2015 720p BluRay DD 5 1 x264
Description:


General
Format                                   : Matroska
Format version                           : Version 4 / Version 2
File size                                : 1.15 GiB
Duration                                 : 1 h 34 min
Overall bit rate                         : 1 736 kb/s

Video
ID                                       : 1
Format                                   : AVC
Format/Info                              : Advanced Video Codec
Format profile                           : [email protected]
Format settings                          : CABAC / 4 Ref Frames
Format settings, CABAC                   : Yes
Format settings, RefFrames               : 4 frames
Codec ID                                 : V_MPEG4/ISO/AVC
Duration                                 : 1 h 34 min
Bit rate                                 : 1 500 kb/s
Width                                    : 1 280 pixels
Height                                   : 544 pixels
Display aspect ratio                     : 2.35:1
Frame rate mode                          : Constant
Frame rate                               : 24.000 FPS
Color space                              : YUV
Chroma subsampling                       : 4:2:0
Bit depth                                : 8 bits
Scan type                                : Progressive
Bits/(Pixel*Frame)                       : 0.090
Stream size                              : 1 003 MiB (85%)
Writing library                          : x264 core 148 r2643 5c65704
Default                                  : Yes
Forced                                   : No

Audio
ID                                       : 2
Format                                   : AC-3
Format/Info                              : Audio Coding 3
Format settings, Endianness              : Big
Codec ID                                 : A_AC3
Duration                                 : 1 h 34 min
Bit rate mode                            : Constant
Bit rate                                 : 256 kb/s
Channel(s)                               : 6 channels
Channel positions                        : Front: L C R, Side: L R, LFE
Sampling rate                            : 48.0 kHz
Frame rate                               : 31.250 FPS (1536 SPF)
Bit depth                                : 16 bits
Compression mode                         : Lossy
Stream size                              : 174 MiB (15%)
Service kind                             : Complete Main
Default                                  : Yes
Forced                                   : No





YouTube Video:
Category:Movies
Language:English  English
Total Size:1.15 GB
Info Hash:5817D8F783E8BEF96434A52F2E8F841046F7966A
Added By:MovieFreak
Date Added:12-10-2017 23:44:21
Torrent Status:Unverified Torrent


Ratings:Not Yet Rated (Log in to rate it)


Tracker:
http://ipv4.tracker.harry.lu/announce

This Torrent also has backup trackers
URLSeedersLeechersCompleted
http://ipv4.tracker.harry.lu/announce9712
http://ipv4.tracker.harry.lu:80/announce9712
udp://tracker.pirateparty.gr:6969/announce7410
http://tracker.devil-torrents.pl:80/announce740
http://tracker.devil-torrents.pl/announce740
http://open.kickasstracker.com/announce860
http://open.kickasstracker.com:443/announce860
udp://p4p.arenabg.com:1337/announce638
udp://9.rarbg.me:2770/announce000
udp://9.rarbg.com:2740/announce6324
udp://9.rarbg.to:2750/announce6324
udp://tracker.coppersurfer.tk:6969/announce7410
udp://tracker.leechers-paradise.org:6969/announce649
udp://tracker.zer0day.to:1337/announce000
http://tracker.devil-torrents.pl/announce740


File List: 





Comments
No comments still posted