Login
Username:
Password:
Remember Me:
[Signup]
[Recover Account]
Friends
BTScene
Friendly site

Ale Torrenty Team
Friendly site

Anime RG
Friendly site

KaranPC
Friendly site

P2PDL.com
Friendly site

Free Tutorials & Courses
Friendly site
Torrent Details For "Mulan.1998.720p.BluRay.x264-x0r"

Mulan.1998.720p.BluRay.x264-x0r

To download this torrent, you need a BitTorrent client: Vuze or BTGuard
Download this torrent
Download using Magnet Link

Direct Download - no client needed

Download Faster - High Speed Download

Health:
Seeds: 12
Leechers: 12
Completed:
Last Checked: 12-08-2017 22:01:32

Uploader Reputation points : 119446
External: Torrent




Write a Review for the Uploader:   55   Say Thanks with one good review:


Details
Name:Mulan.1998.720p.BluRay.x264-x0r
Description:
Mulan.1998.720p.BluRay.x264-x0r

ImDb: http://www.imdb.com/title/tt0120762



Complete name                            : Mulan.1998.720p.BluRay.x264-x0r.mkv
Format                                   : Matroska
Format version                           : Version 4 / Version 2
File size                                : 2.04 GiB
Duration                                 : 1 h 27 min
Overall bit rate                         : 3 326 kb/s
Movie name                               : Mulan.1998.720p.BluRay.x264-x0r
Encoded date                             : UTC 2017-08-12 19:52:11
Writing application                      : mkvmerge v7.7.0 ('Six Voices') 64bit built on Mar  1 2015 01:50:05
Writing library                          : libebml v1.3.1 + libmatroska v1.4.2

Video
ID                                       : 1
Format                                   : AVC
Format/Info                              : Advanced Video Codec
Format profile                           : [email protected]
Format settings, CABAC                   : Yes
Format settings, ReFrames                : 8 frames
Codec ID                                 : V_MPEG4/ISO/AVC
Duration                                 : 1 h 27 min
Bit rate                                 : 2 560 kb/s
Width                                    : 1 280 pixels
Height                                   : 720 pixels
Display aspect ratio                     : 16:9
Frame rate mode                          : Constant
Frame rate                               : 23.976 FPS
Color space                              : YUV
Chroma subsampling                       : 4:2:0
Bit depth                                : 8 bits
Scan type                                : Progressive
Bits/(Pixel*Frame)                       : 0.116
Stream size                              : 1.57 GiB (77%)
Writing library                          : x264 core 142 r2389 956c8d8
Encoding settings                        : cabac=1 / ref=8 / deblock=1:-1:-1 / analyse=0x3:0x133 / me=umh / subme=9 / psy=1 / psy_rd=0.50:0.25 / mixed_ref=0 / me_range=32 / chroma_me=1 / trellis=2 / 8x8dct=1 / cqm=0 / deadzone=21,11 / fast_pskip=0 / chroma_qp_offset=-4 / threads=12 / lookahead_threads=1 / sliced_threads=0 / nr=0 / decimate=0 / interlaced=0 / bluray_compat=0 / constrained_intra=0 / bframes=4 / b_pyramid=2 / b_adapt=2 / b_bias=0 / direct=3 / weightb=1 / open_gop=0 / weightp=2 / keyint=240 / keyint_min=24 / scenecut=40 / intra_refresh=0 / rc_lookahead=120 / rc=2pass / mbtree=1 / bitrate=2560 / ratetol=1.0 / qcomp=0.00 / qpmin=0 / qpmax=69 / qpstep=4 / cplxblur=20.0 / qblur=0.5 / vbv_maxrate=20000 / vbv_bufsize=25000 / nal_hrd=none / filler=0 / ip_ratio=1.10 / aq=1:0.70
Language                                 : English
Default                                  : Yes
Forced                                   : No
Color range                              : Limited
Color primaries                          : BT.709
Transfer characteristics                 : BT.709
Matrix coefficients                      : BT.709

Audio #1
ID                                       : 2
Format                                   : AC-3
Format/Info                              : Audio Coding 3
Format settings, Endianness              : Big
Codec ID                                 : A_AC3
Duration                                 : 1 h 27 min
Bit rate mode                            : Constant
Bit rate                                 : 448 kb/s
Channel(s)                               : 6 channels
Channel positions                        : Front: L C R, Side: L R, LFE
Sampling rate                            : 48.0 kHz
Frame rate                               : 31.250 FPS (1536 spf)
Bit depth                                : 16 bits
Compression mode                         : Lossy
Delay relative to video                  : -5 ms
Stream size                              : 281 MiB (13%)
Title                                    : Surround
Language                                 : English
Service kind                             : Complete Main
Default                                  : Yes
Forced                                   : No

Audio #2
ID                                       : 3
Format                                   : AC-3
Format/Info                              : Audio Coding 3
Format settings, Endianness              : Big
Codec ID                                 : A_AC3
Duration                                 : 1 h 27 min
Bit rate mode                            : Constant
Bit rate                                 : 320 kb/s
Channel(s)                               : 2 channels
Channel positions                        : Front: L R
Sampling rate                            : 48.0 kHz
Frame rate                               : 31.250 FPS (1536 spf)
Bit depth                                : 16 bits
Compression mode                         : Lossy
Stream size                              : 201 MiB (10%)
Title                                    : Commentary
Language                                 : English
Service kind                             : Complete Main
Default                                  : No
Forced                                   : No

Text
ID                                       : 4
Format                                   : UTF-8
Codec ID                                 : S_TEXT/UTF8
Codec ID/Info                            : UTF-8 Plain Text
Duration                                 : 1 h 26 min
Bit rate                                 : 57 b/s
Count of elements                        : 1268
Stream size                              : 36.1 KiB (0%)
Language                                 : English
Default                                  : Yes
Forced                                   : No

Menu
00:00:00.000                             : :Chapter 1
00:00:59.285                             : :Chapter 2
00:03:06.453                             : :Chapter 3
00:06:07.175                             : :Chapter 4
00:09:06.521                             : :Chapter 5
00:11:55.106                             : :Chapter 6
00:14:13.912                             : :Chapter 7
00:17:23.017                             : :Chapter 8
00:20:25.032                             : :Chapter 9
00:23:14.243                             : :Chapter 10
00:25:26.375                             : :Chapter 11
00:26:57.049                             : :Chapter 12
00:29:10.683                             : :Chapter 13
00:32:54.448                             : :Chapter 14
00:34:49.313                             : :Chapter 15
00:37:31.349                             : :Chapter 16
00:42:07.709                             : :Chapter 17
00:45:49.973                             : :Chapter 18
00:46:45.653                             : :Chapter 19
00:47:33.785                             : :Chapter 20
00:49:48.794                             : :Chapter 21
00:54:38.375                             : :Chapter 22
00:59:49.520                             : :Chapter 23
01:04:20.457                             : :Chapter 24
01:06:02.225                             : :Chapter 25
01:08:47.140                             : :Chapter 26
01:11:41.397                             : :Chapter 27
01:15:44.223                             : :Chapter 28
01:18:53.287                             : :Chapter 29
01:20:57.578                             : :Chapter 30






Click To View Screenshot

Click To View Screenshot

Click To View Screenshot
YouTube Video:
Category:Movies
Language:English  English
Total Size:2.04 GB
Info Hash:35EEE81F67C2518A3E7BF879856B078F1202000D
Added By:Simmoncelli VIPMovie Pirate
Date Added:12-08-2017 21:48:43
Torrent Status:Torrent Verified


Ratings:Not Yet Rated (Log in to rate it)


Tracker:
udp://tracker.coppersurfer.tk:6969/announce

This Torrent also has backup trackers
URLSeedersLeechersCompleted
udp://tracker.coppersurfer.tk:6969/announce110
udp://tracker.pirateparty.gr:6969/announce110
udp://shadowshq.yi.org:6969/announce110
udp://eddie4.nl:6969/announce110
udp://tracker.leechers-paradise.org:6969/announce110
udp://tracker.opentrackr.org:1337/announce110
udp://p4p.arenabg.ch:1337/announce110
udp://p4p.arenabg.com:1337/announce110
udp://9.rarbg.me:2710/announce110
udp://9.rarbg.to:2710/announce110
udp://ipv4.tracker.harry.lu:80/announce000
udp://tracker.grepler.com:6969/announce000
udp://public.popcorn-tracker.org:6969/announce110
udp://tracker.opentrackr.org:1337/announce110
udp://tracker.zer0day.to:1337/announce000


File List: 





Comments
No comments still posted