Login
Username:
Password:
Remember Me:
[Signup]
[Recover Account]
Friends
BTScene
Friendly site

Ale Torrenty Team
Friendly site

Anime RG
Friendly site

KaranPC
Friendly site

P2PDL.com
Friendly site

Free Tutorials & Courses
Friendly site
Torrent Details For "Mulan.2.2004.720p.BluRay.x264-x0r"

Mulan.2.2004.720p.BluRay.x264-x0r

To download this torrent, you need a BitTorrent client: Vuze or BTGuard
Download this torrent
Download using Magnet Link

Direct Download - no client needed

Download Faster - High Speed Download

Health:
Seeds: 64
Leechers: 35
Completed: 1,535 
Last Checked: 06-10-2017 20:07:37

Uploader Reputation points : 119446
External: Torrent




Write a Review for the Uploader:   55   Say Thanks with one good review:


Details
Name:Mulan.2.2004.720p.BluRay.x264-x0r
Description:
Mulan.2.2004.720p.BluRay.x264-x0r

ImDb: http://www.imdb.com/title/tt0279967



Complete name                            : Mulan.2.2004.720p.BluRay.x264-x0r.mkv
Format                                   : Matroska
Format version                           : Version 4 / Version 2
File size                                : 1.65 GiB
Duration                                 : 1 h 18 min
Overall bit rate                         : 3 010 kb/s
Movie name                               : Mulan.2.2004.720p.BluRay.x264-x0r
Encoded date                             : UTC 2017-08-12 23:20:20
Writing application                      : mkvmerge v7.7.0 ('Six Voices') 64bit built on Mar  1 2015 01:50:05
Writing library                          : libebml v1.3.1 + libmatroska v1.4.2

Video
ID                                       : 1
Format                                   : AVC
Format/Info                              : Advanced Video Codec
Format profile                           : [email protected]
Format settings, CABAC                   : Yes
Format settings, ReFrames                : 8 frames
Codec ID                                 : V_MPEG4/ISO/AVC
Duration                                 : 1 h 18 min
Bit rate                                 : 2 560 kb/s
Width                                    : 1 280 pixels
Height                                   : 720 pixels
Display aspect ratio                     : 16:9
Frame rate mode                          : Constant
Frame rate                               : 23.976 FPS
Color space                              : YUV
Chroma subsampling                       : 4:2:0
Bit depth                                : 8 bits
Scan type                                : Progressive
Bits/(Pixel*Frame)                       : 0.116
Stream size                              : 1.41 GiB (85%)
Writing library                          : x264 core 142 r2389 956c8d8
Encoding settings                        : cabac=1 / ref=8 / deblock=1:-1:-1 / analyse=0x3:0x133 / me=umh / subme=9 / psy=1 / psy_rd=0.50:0.25 / mixed_ref=0 / me_range=32 / chroma_me=1 / trellis=2 / 8x8dct=1 / cqm=0 / deadzone=21,11 / fast_pskip=0 / chroma_qp_offset=-4 / threads=12 / lookahead_threads=1 / sliced_threads=0 / nr=0 / decimate=0 / interlaced=0 / bluray_compat=0 / constrained_intra=0 / bframes=4 / b_pyramid=2 / b_adapt=2 / b_bias=0 / direct=3 / weightb=1 / open_gop=0 / weightp=2 / keyint=240 / keyint_min=24 / scenecut=40 / intra_refresh=0 / rc_lookahead=120 / rc=2pass / mbtree=1 / bitrate=2560 / ratetol=1.0 / qcomp=0.00 / qpmin=0 / qpmax=69 / qpstep=4 / cplxblur=20.0 / qblur=0.5 / vbv_maxrate=20000 / vbv_bufsize=25000 / nal_hrd=none / filler=0 / ip_ratio=1.10 / aq=1:0.70
Language                                 : English
Default                                  : Yes
Forced                                   : No
Color range                              : Limited
Color primaries                          : BT.709
Transfer characteristics                 : BT.709
Matrix coefficients                      : BT.709

Audio
ID                                       : 2
Format                                   : AC-3
Format/Info                              : Audio Coding 3
Format settings, Endianness              : Big
Codec ID                                 : A_AC3
Duration                                 : 1 h 18 min
Bit rate mode                            : Constant
Bit rate                                 : 448 kb/s
Channel(s)                               : 6 channels
Channel positions                        : Front: L C R, Side: L R, LFE
Sampling rate                            : 48.0 kHz
Frame rate                               : 31.250 FPS (1536 spf)
Bit depth                                : 16 bits
Compression mode                         : Lossy
Delay relative to video                  : -5 ms
Stream size                              : 252 MiB (15%)
Title                                    : Surround
Language                                 : English
Service kind                             : Complete Main
Default                                  : Yes
Forced                                   : No

Text
ID                                       : 3
Format                                   : UTF-8
Codec ID                                 : S_TEXT/UTF8
Codec ID/Info                            : UTF-8 Plain Text
Duration                                 : 1 h 17 min
Bit rate                                 : 77 b/s
Count of elements                        : 1480
Stream size                              : 44.3 KiB (0%)
Language                                 : English
Default                                  : Yes
Forced                                   : No

Menu
00:00:00.000                             : :Chapter 1
00:03:12.418                             : :Chapter 2
00:08:30.944                             : :Chapter 3
00:12:12.123                             : :Chapter 4
00:14:15.455                             : :Chapter 5
00:17:16.302                             : :Chapter 6
00:19:57.296                             : :Chapter 7
00:25:07.106                             : :Chapter 8
00:31:51.760                             : :Chapter 9
00:38:00.670                             : :Chapter 10
00:42:19.054                             : :Chapter 11
00:51:13.045                             : :Chapter 12
01:02:08.742                             : :Chapter 13
01:04:58.078                             : :Chapter 14
01:10:14.144                             : :Chapter 15
01:13:23.875                             : :Chapter 16






Click To View Screenshot

Click To View Screenshot

Click To View Screenshot
YouTube Video:
Category:Movies
Language:English  English
Total Size:1.66 GB
Info Hash:4B0F8BE47891C0606E0269D194114116EB17F996
Added By:Simmoncelli VIPMovie Pirate
Date Added:13-08-2017 00:35:40
Torrent Status:Torrent Verified


Ratings:Not Yet Rated (Log in to rate it)


Tracker:
udp://tracker.coppersurfer.tk:6969/announce

This Torrent also has backup trackers
URLSeedersLeechersCompleted
udp://tracker.coppersurfer.tk:6969/announce85565
udp://tracker.pirateparty.gr:6969/announce85565
udp://shadowshq.yi.org:6969/announce734
udp://eddie4.nl:6969/announce734
udp://tracker.leechers-paradise.org:6969/announce734
udp://tracker.opentrackr.org:1337/announce4236
udp://p4p.arenabg.ch:1337/announce3259
udp://p4p.arenabg.com:1337/announce3259
udp://9.rarbg.me:2710/announce4211
udp://9.rarbg.to:2710/announce4211
udp://ipv4.tracker.harry.lu:80/announce3212
udp://tracker.grepler.com:6969/announce000
udp://public.popcorn-tracker.org:6969/announce22169
udp://tracker.opentrackr.org:1337/announce4236
udp://tracker.zer0day.to:1337/announce000


File List: 





Comments
No comments still posted