Login
Username:
Password:
Remember Me:
[Signup]
[Recover Account]
Friends
BTScene
Friendly site

Ale Torrenty Team
Friendly site

Anime RG
Friendly site

KaranPC
Friendly site

P2PDL.com
Friendly site

Free Tutorials & Courses
Friendly site
Torrent Details For "Shock.Treatment.1981.720p.BluRay.x264-PSYCHD"

Shock.Treatment.1981.720p.BluRay.x264-PSYCHD

To download this torrent, you need a BitTorrent client: Vuze or BTGuard
Download this torrent
Download using Magnet Link

Direct Download - no client needed

Download Faster - High Speed Download

Health:
Seeds: 13
Leechers: 0
Completed:
Last Checked: 12-10-2017 09:15:59

Uploader Reputation points : 120036
External: Torrent




Write a Review for the Uploader:   55   Say Thanks with one good review:


Details
Name:Shock.Treatment.1981.720p.BluRay.x264-PSYCHD
Description:
Shock.Treatment.1981.720p.BluRay.x264-PSYCHD

ImDb: http://www.imdb.com/title/tt0083067



Complete name                            : Shock.Treatment.1981.720p.BluRay.x264-PSYCHD.mkv
Format                                   : Matroska
Format version                           : Version 4 / Version 2
File size                                : 5.46 GiB
Duration                                 : 1 h 35 min
Overall bit rate                         : 8 228 kb/s
Encoded date                             : UTC 2010-02-22 21:41:29
Writing application                      : no_variable_data
Writing library                          : no_variable_data

Video
ID                                       : 1
Format                                   : AVC
Format/Info                              : Advanced Video Codec
Format profile                           : [email protected]
Format settings, CABAC                   : Yes
Format settings, ReFrames                : 5 frames
Codec ID                                 : V_MPEG4/ISO/AVC
Duration                                 : 1 h 35 min
Bit rate                                 : 7 460 kb/s
Width                                    : 1 280 pixels
Height                                   : 696 pixels
Display aspect ratio                     : 1.85:1
Frame rate mode                          : Constant
Frame rate                               : 23.976 (24000/1001) FPS
Color space                              : YUV
Chroma subsampling                       : 4:2:0
Bit depth                                : 8 bits
Scan type                                : Progressive
Bits/(Pixel*Frame)                       : 0.349
Stream size                              : 4.84 GiB (89%)
Writing library                          : x264 core 152 r2851 ba24899
Encoding settings                        : cabac=1 / ref=5 / deblock=1:-3:-3 / analyse=0x3:0x113 / me=umh / subme=8 / psy=1 / psy_rd=1.10:0.00 / mixed_ref=1 / me_range=24 / chroma_me=1 / trellis=1 / 8x8dct=1 / cqm=0 / deadzone=21,11 / fast_pskip=1 / chroma_qp_offset=-2 / threads=6 / lookahead_threads=1 / sliced_threads=0 / nr=0 / decimate=1 / interlaced=0 / bluray_compat=0 / constrained_intra=0 / bframes=3 / b_pyramid=2 / b_adapt=2 / b_bias=0 / direct=3 / weightb=1 / open_gop=0 / weightp=2 / keyint=240 / keyint_min=24 / scenecut=40 / intra_refresh=0 / rc_lookahead=50 / rc=2pass / mbtree=1 / bitrate=7460 / ratetol=1.0 / qcomp=0.60 / qpmin=0 / qpmax=69 / qpstep=4 / cplxblur=20.0 / qblur=0.5 / ip_ratio=1.40 / aq=3:0.75
Default                                  : Yes
Forced                                   : No
Statistics Tags Issue                    : no_variable_data 1970-01-01 00:00:00 / no_variable_data 2010-02-22 21:41:29
FromStats_BitRate                        : 7457256
FromStats_Duration                       : 01:35:02.155000000
FromStats_FrameCount                     : 136715
FromStats_StreamSize                     : 5315304379

Audio
ID                                       : 2
Format                                   : DTS
Format/Info                              : Digital Theater Systems
Mode                                     : 16
Format settings, Endianness              : Big
Codec ID                                 : A_DTS
Duration                                 : 1 h 35 min
Bit rate mode                            : Constant
Bit rate                                 : 768 kb/s
Channel(s)                               : 6 channels
Channel positions                        : Front: L C R, Side: L R, LFE
Sampling rate                            : 48.0 kHz
Frame rate                               : 93.750 FPS (512 spf)
Bit depth                                : 24 bits
Compression mode                         : Lossy
Stream size                              : 522 MiB (9%)
Language                                 : English
Default                                  : Yes
Forced                                   : No
Statistics Tags Issue                    : no_variable_data 1970-01-01 00:00:00 / no_variable_data 2010-02-22 21:41:29
FromStats_BitRate                        : 768000
FromStats_Duration                       : 01:35:01.824000000
FromStats_FrameCount                     : 534546
FromStats_StreamSize                     : 547375104

Text #1
ID                                       : 3
Format                                   : UTF-8
Codec ID                                 : S_TEXT/UTF8
Codec ID/Info                            : UTF-8 Plain Text
Language                                 : English
Default                                  : No
Forced                                   : No
Statistics Tags Issue                    : no_variable_data 1970-01-01 00:00:00 / no_variable_data 2010-02-22 21:41:29
FromStats_BitRate                        : 68
FromStats_Duration                       : 01:33:13.629000000
FromStats_FrameCount                     : 1288
FromStats_StreamSize                     : 48081

Text #2
ID                                       : 4
Format                                   : UTF-8
Codec ID                                 : S_TEXT/UTF8
Codec ID/Info                            : UTF-8 Plain Text
Title                                    : SDH
Language                                 : English
Default                                  : No
Forced                                   : No
Statistics Tags Issue                    : no_variable_data 1970-01-01 00:00:00 / no_variable_data 2010-02-22 21:41:29
FromStats_BitRate                        : 73
FromStats_Duration                       : 01:33:36.819000000
FromStats_FrameCount                     : 1378
FromStats_StreamSize                     : 51436

Menu
00:00:00.000                             : en:00:00:00.000
00:07:56.518                             : en:00:07:56.518
00:14:44.675                             : en:00:14:44.675
00:21:55.731                             : en:00:21:55.731
00:31:45.487                             : en:00:31:45.487
00:38:22.050                             : en:00:38:22.050
00:43:38.533                             : en:00:43:38.533
00:52:33.734                             : en:00:52:33.734
00:59:53.465                             : en:00:59:53.465
01:06:18.141                             : en:01:06:18.141
01:14:57.660                             : en:01:14:57.660
01:23:06.148                             : en:01:23:06.148






Click To View Screenshot

Click To View Screenshot

Click To View Screenshot
YouTube Video:
Category:Movies
Language:English  English
Total Size:5.46 GB
Info Hash:A477C1789C57865BFDFDC4D10104AE6EC3934BE7
Added By:Simmoncelli VIPMovie Pirate
Date Added:12-10-2017 09:07:13
Torrent Status:Torrent Verified


Ratings:Not Yet Rated (Log in to rate it)


Tracker:
udp://tracker.coppersurfer.tk:6969/announce

This Torrent also has backup trackers
URLSeedersLeechersCompleted
udp://tracker.coppersurfer.tk:6969/announce100
udp://tracker.pirateparty.gr:6969/announce100
udp://shadowshq.yi.org:6969/announce100
udp://eddie4.nl:6969/announce100
udp://tracker.leechers-paradise.org:6969/announce100
udp://tracker.opentrackr.org:1337/announce100
udp://p4p.arenabg.ch:1337/announce100
udp://p4p.arenabg.com:1337/announce100
udp://9.rarbg.me:2710/announce100
udp://9.rarbg.to:2710/announce100
udp://ipv4.tracker.harry.lu:80/announce100
udp://tracker.grepler.com:6969/announce000
udp://public.popcorn-tracker.org:6969/announce100
udp://tracker.opentrackr.org:1337/announce100
udp://tracker.zer0day.to:1337/announce000


File List: 





Comments
No comments still posted