Login
Username:
Password:
Remember Me:
[Signup]
[Recover Account]
Friends
BTScene
Friendly site

Ale Torrenty Team
Friendly site

Anime RG
Friendly site

KaranPC
Friendly site

P2PDL.com
Friendly site

Free Tutorials & Courses
Friendly site
Torrent Details For "The Beatles Sgt Pepper and Beyond 2017 ENG BluRay 720p Sub-ITA iCV-MIRCrew mkv"

The Beatles Sgt Pepper and Beyond 2017 ENG BluRay 720p Sub-ITA iCV-MIRCrew mkv

To download this torrent, you need a BitTorrent client: Vuze or BTGuard
Download this torrent
Download using Magnet Link

Direct Download - no client needed

Download Faster - High Speed Download

Health:
Seeds: 2
Leechers: 12
Completed:
Last Checked: 13-08-2017 00:16:02

Uploader Reputation points : 308
External: Torrent




Write a Review for the Uploader:   0   Say Thanks with one good review:


Details
Name:The Beatles Sgt Pepper and Beyond 2017 ENG BluRay 720p Sub-ITA iCV-MIRCrew mkv
Description:

The Beatles: Sgt Pepper & Beyond (2017).mkv AC3 720p BluRay [Sub-ITA]






It Was Fifty Years Ago Today... Sgt Pepper and Beyond









Dopo Eight days a week, che raccontava la nascita del mito e l'incredibile "stagione" live dei ragazzi di Liverpool, il film The Beatles: Sgt Pepper & Beyond affronta i dodici mesi più cruciali della carriera della band: l'anno in cui i Fab Four sospesero i tour diventando gli artisti più innovativi del mondo in sala di registrazione. Nel film immagini e interviste inedite che raccontano il periodo magico degli Abbey Road Studios, la nascita delle canzoni e il lancio dell’album che più di ogni altro ha segnato la loro storia. Un nuovo capitolo per approfondire quell'avventura che forse è ancora oggi la più rivoluzionaria del panorama culturale mondiale. Grande amante della band sin dall'età di 9 anni, il regista del film, Alan G. Parker, ha deciso di analizzare quel periodo così decisivo incontrando molti testimoni di quegli eventi e accompagnando i loro racconti con una gran quantità di filmati di archivio, di cui una gran parte inedita. Il risultato è un'analisi approfondita del motivo per il quale la band decise di interrompere i tour, di come fu realizzato l'album e delle sessioni di registrazione presso gli studi di Abbey Road, della Emi. Nel film vengono analizzati anche i testi delle loro canzoni e la creazione della celebre copertina dell'album, senza dimenticare la risposta dei fan all’uscita dell’album nei negozi. Il tutto è arricchito da curiosi retroscena sulle ragioni dei problemi tra i membri della band e il loro manager, Brian Epstein; la tragica morte di quest'ultimo; la creazione della Apple e la fortissima influenza esercitata sui Beatles da Maharishi Mahesh Yogi.






     






DATA USCITA: 30 maggio 2017
GENERE: Documentario, Musicale
ANNO: 2017
REGIA: Alan Parker
FOTOGRAFIA: Steve Kendrick
MONTAGGIO: Ian Farr
MUSICHE: Andre Barreau, Evan Jolly
PRODUZIONE: A Geezer & A Blonde Productions London
DISTRIBUZIONE: Lucky Red
PAESE: Gran Bretagna




The.Beatles.Sgt.Pepper.and.Beyond.2017.ENG.BluRay.720p.Sub-ITA.iCV-MIRCrew.mkv

Fonte Video & Audio: BD
Format : MKV
Codec Video : x264
codec Audio : AC3
Lingua : Inglese
Sub Forced: Italiano
Versione File: iCV-MIRCrew



General
Complete name : The.Beatles.Sgt.Pepper.and.Beyond.2017.ENG.BluRay.720p.Sub-ITA.iCV-MIRCrew.mkv
Format : Matroska
Format version : Version 2
File size : 3.63 GiB
Duration : 1h 30mn
Overall bit rate : 3 901 Kbps
Movie name : VISIT www.icv-crew.org
Encoded date : UTC 2017-08-12 21:26:55
Writing application : Lavf54.63.100
Writing library : Lavf54.63.100
COPYRIGHT : robbyrs

Video
ID : 1
Format : AVC
Format/Info : Advanced Video Codec
Format profile : [email protected]
Format settings, CABAC : Yes
Format settings, ReFrames : 2 frames
Codec ID : V_MPEG4/ISO/AVC
Duration : 1h 30mn
Bit rate : 3 000 Kbps
Width : 1 280 pixels
Height : 720 pixels
Display aspect ratio : 2.40:1
Frame rate mode : Variable
Frame rate : 23.976 fps
Color space : YUV
Chroma subsampling : 4:2:0
Bit depth : 8 bits
Scan type : Progressive
Bits/(Pixel*Frame) : 0.101
Stream size : 2.72 GiB (75%)
Writing library : x264 core 130 r2273
Encoding settings : cabac=1 / ref=2 / deblock=1:0:0 / analyse=0x1:0x131 / me=hex / subme=7 / psy=1 / psy_rd=1.00:0.00 / mixed_ref=0 / me_range=16 / chroma_me=1 / trellis=1 / 8x8dct=0 / cqm=0 / deadzone=21,11 / fast_pskip=1 / chroma_qp_offset=-2 / threads=12 / lookahead_threads=2 / sliced_threads=0 / nr=0 / decimate=1 / interlaced=0 / bluray_compat=0 / constrained_intra=0 / bframes=3 / b_pyramid=0 / b_adapt=1 / b_bias=0 / direct=3 / weightb=1 / open_gop=0 / weightp=2 / keyint=230 / keyint_min=23 / scenecut=40 / intra_refresh=0 / rc_lookahead=40 / rc=2pass / mbtree=1 / bitrate=3000 / ratetol=1.0 / qcomp=0.60 / qpmin=10 / qpmax=69 / qpstep=4 / cplxblur=20.0 / qblur=0.5 / vbv_maxrate=24000 / vbv_bufsize=24000 / nal_hrd=none / ip_ratio=1.40 / aq=1:1.00
Language : English
Default : Yes
Forced : No

Audio
ID : 3
Format : AC-3
Format/Info : Audio Coding 3
Mode extension : CM (complete main)
Codec ID : A_AC3
Duration : 1h 30mn
Bit rate mode : Constant
Bit rate : 448 Kbps
Channel(s) : 6 channels
Channel positions : Front: L C R, Side: L R, LFE
Sampling rate : 48.0 KHz
Bit depth : 16 bits
Compression mode : Lossy
Delay relative to video : 1mn 5s
Stream size : 426 MiB (11%)
Language : English
Default : No
Forced : No

Text #1
ID : 4
Format : UTF-8
Codec ID : S_TEXT/UTF8
Codec ID/Info : UTF-8 Plain Text
Title : FORCED
Language : Italian
Default : Yes
Forced : No

Text #2
ID : 5
Format : UTF-8
Codec ID : S_TEXT/UTF8
Codec ID/Info : UTF-8 Plain Text
Title : REGOLARI
Language : Italian
Default : No
Forced : No

Menu
00:00:00.000 : :Chapter 1
00:08:40.270 : :Chapter 2
00:18:55.718 : :Chapter 3
00:28:23.660 : :Chapter 4
00:38:34.187 : :Chapter 5
00:48:08.594 : :Chapter 6
00:58:19.246 : :Chapter 7
01:09:14.692 : :Chapter 8
01:17:26.392 : :Chapter 9
01:29:33.660 : :Chapter 10
01:38:02.085 : :Chapter 11
01:50:27.871 : :Chapter 12
01:59:04.471 : :Chapter 13
02:04:11.944 : :Chapter 14

YouTube Video:   
Category:Movies
Language:Italian  Italian
Total Size:3.64 GB
Info Hash:E27D0F526D8A7C325BC0FCEFAD957B5EBC06EBC6
Added By:freeroman96
Date Added:13-08-2017 00:04:15
Torrent Status:Unverified Torrent


Ratings:Not Yet Rated (Log in to rate it)

  


Tracker:
http://buhaypirata.net/announce.php

This Torrent also has backup trackers
URLSeedersLeechersCompleted
http://buhaypirata.net/announce.php000
udp://tracker.coppersurfer.tk:6969/announce030
udp://tracker.ilibr.org:6969/announce000
udp://tracker.coppersurfer.tk:6969030
udp://tracker.ilibr.org:80/announce000
udp://eddie4.nl:6969/announce010
udp://tracker.leechers-paradise.org:6969010
udp://tracker.internetwarriors.net:1337010
udp://tracker.opentrackr.org:1337/announce010
udp://tracker.zer0day.to:1337/announce000
udp://9.rarbg.me:2710/announce110
udp://9.rarbg.com:2710/announce110


File List: 

Error reading .nfo file!



Comments
No comments still posted