Login
Username:
Password:
Remember Me:
[Signup]
[Recover Account]
Friends
BTScene
Friendly site

Ale Torrenty Team
Friendly site

Anime RG
Friendly site

KaranPC
Friendly site

P2PDL.com
Friendly site

Free Tutorials & Courses
Friendly site
Torrent Details For "The Crucifixion 2017 720p WEBRip DD 5 1 x264"

The Crucifixion 2017 720p WEBRip DD 5 1 x264

To download this torrent, you need a BitTorrent client: Vuze or BTGuard
Download this torrent
Download using Magnet Link

Direct Download - no client needed

Download Faster - High Speed Download

Health:
Seeds: 17
Leechers: 43
Completed:
Last Checked: 12-10-2017 10:01:10

Uploader Reputation points : 514
External: Torrent




Write a Review for the Uploader:   0   Say Thanks with one good review:


Details
Name:The Crucifixion 2017 720p WEBRip DD 5 1 x264
Description:

General
Format                                   : Matroska
Format version                           : Version 4 / Version 2
File size                                : 890 MiB
Duration                                 : 1 h 29 min
Overall bit rate                         : 1 385 kb/s

Video
ID                                       : 1
Format                                   : AVC
Format/Info                              : Advanced Video Codec
Format profile                           : [email protected]
Format settings                          : CABAC / 4 Ref Frames
Format settings, CABAC                   : Yes
Format settings, RefFrames               : 4 frames
Codec ID                                 : V_MPEG4/ISO/AVC
Duration                                 : 1 h 29 min
Bit rate                                 : 1 200 kb/s
Width                                    : 1 280 pixels
Height                                   : 538 pixels
Display aspect ratio                     : 2.40:1
Frame rate mode                          : Constant
Frame rate                               : 23.976 (23976/1000) FPS
Color space                              : YUV
Chroma subsampling                       : 4:2:0
Bit depth                                : 8 bits
Scan type                                : Progressive
Bits/(Pixel*Frame)                       : 0.073
Stream size                              : 766 MiB (86%)
Writing library                          : x264 core 148 r2643 5c65704
Default                                  : Yes
Forced                                   : No

Audio
ID                                       : 2
Format                                   : AC-3
Format/Info                              : Audio Coding 3
Format settings, Endianness              : Big
Codec ID                                 : A_AC3
Duration                                 : 1 h 29 min
Bit rate mode                            : Constant
Bit rate                                 : 192 kb/s
Channel(s)                               : 6 channels
Channel positions                        : Front: L C R, Side: L R, LFE
Sampling rate                            : 48.0 kHz
Frame rate                               : 31.250 FPS (1536 SPF)
Bit depth                                : 16 bits
Compression mode                         : Lossy
Stream size                              : 123 MiB (14%)
Service kind                             : Complete Main
Default                                  : Yes
Forced                                   : No





YouTube Video:
Category:Movies
Language:English  English
Total Size:890.34 MB
Info Hash:77D5B8169337A3324D235671E379BA9B1760981A
Added By:MovieFreak
Date Added:12-10-2017 09:58:54
Torrent Status:Unverified Torrent


Ratings:Not Yet Rated (Log in to rate it)


Tracker:
http://ipv4.tracker.harry.lu/announce

This Torrent also has backup trackers
URLSeedersLeechersCompleted
http://ipv4.tracker.harry.lu/announce140
http://ipv4.tracker.harry.lu:80/announce140
udp://tracker.pirateparty.gr:6969/announce130
http://tracker.devil-torrents.pl:80/announce240
http://tracker.devil-torrents.pl/announce240
http://open.kickasstracker.com/announce240
http://open.kickasstracker.com:443/announce240
udp://p4p.arenabg.com:1337/announce130
udp://9.rarbg.me:2770/announce130
udp://9.rarbg.com:2740/announce000
udp://9.rarbg.to:2750/announce000
udp://tracker.coppersurfer.tk:6969/announce130
udp://tracker.leechers-paradise.org:6969/announce130
udp://tracker.zer0day.to:1337/announce000
http://tracker.devil-torrents.pl/announce240


File List: 





Comments
No comments still posted