Login
Username:
Password:
Remember Me:
[Signup]
[Recover Account]
Friends
BTScene
Friendly site

Ale Torrenty Team
Friendly site

Anime RG
Friendly site

KaranPC
Friendly site

P2PDL.com
Friendly site

Free Tutorials & Courses
Friendly site
Torrent Details For "The Dressmaker 2015 WEBRip 480p x264 AAC-VYTO [P2PDL]"

The Dressmaker 2015 WEBRip 480p x264 AAC-VYTO [P2PDL]

To download this torrent, you need a BitTorrent client: Vuze or BTGuard
Download this torrent
Download using Magnet Link

Direct Download - no client needed

Download Faster - High Speed Download

Health:
Seeds: 0
Leechers: 1
Completed:
Last Checked: 20-10-2017 09:36:47

Uploader Reputation points : 1558
External: Torrent




Write a Review for the Uploader:   5   Say Thanks with one good review:


Details
Name:The Dressmaker 2015 WEBRip 480p x264 AAC-VYTO [P2PDL]
Description:



The.Dressmaker.2015.WEBRip.480p.x264.AAC-VYTO




Genre: Drama
IMDb: http://www.imdb.com/title/tt2910904/


Quote:

Format                                   : MPEG-4
File size                                : 396 MiB
Duration                                 : 1h 53mn
Overall bit rate                         : 489 Kbps

Video
Format                                   : AVC
Bit rate                                 : 454 Kbps
Width                                    : 720 pixels
Height                                   : 304 pixels
Display aspect ratio                     : 2.35:1
Frame rate mode                          : Constant
Frame rate                               : 25.000 fps
Bit depth                                : 8 bits
Stream size                              : 367 MiB (93%)
Writing library                          : x264

Audio
Format                                   : AAC
Bit rate mode                            : Variable
Bit rate                                 : 32.0 Kbps
Channel(s)                               : 2 channels
Channel positions                        : Front: L R
Sampling rate                            : 48.0 KHz
Stream size                              : 25.9 MiB (7%)
Language                                 : English

Subtitle                                 : Yes (English)

Screen Shots: (click to see image in full size)









-------------------------------------------------------------------------------------


Quote:

Encoder Notes: Looking For Early Access To Anything You Can Provide WEBDL, DVDScr, DVDR, BluRay, Direct
Audio, Music Releases and Seedboxes.






YouTube Video:
Category:Packs
Language:Aucune/N/D
Total Size:401.21 MB
Info Hash:AF966D4B32CF0F171069C6299511D0045FBF4435
Added By:vyto VIPMovie Pirate
Date Added:23-02-2016 04:06:16
Torrent Status:Torrent Verified


Ratings:Not Yet Rated (Log in to rate it)

  


Tracker:
udp://tracker.coppersurfer.tk:6969/announce

This Torrent also has backup trackers
URLSeedersLeechersCompleted
udp://tracker.coppersurfer.tk:6969/announce000
udp://tracker.blackunicorn.xyz:6969/announce000
udp://tracker.openbittorrent.com:80/announce000
udp://tracker.opentrackr.org:1337/announce000
udp://9.rarbg.to:2710/announce000
udp://9.rarbg.me:2710/announce000
udp://tracker.sktorrent.net:6969/announce000
udp://tracker.glotorrents.com:6969/announce000
udp://p4p.arenabg.com:1337/announce000
http://ipv4.tracker.harry.lu:80/announce010
http://tracker.ex.ua/announce000
udp://torrent.gresille.org:80/announce000
http://tracker.aletorrenty.pl:2710/announce000
udp://tracker.leechers-paradise.org:6969/announce000
udp://tracker.istole.it:80/announce000


File List: 



NFO:




Comments
No comments still posted