Login
Username:
Password:
Remember Me:
[Signup]
[Recover Account]
Friends
BTScene
Friendly site

Ale Torrenty Team
Friendly site

Anime RG
Friendly site

KaranPC
Friendly site

P2PDL.com
Friendly site

Free Tutorials & Courses
Friendly site
Torrent Details For "The Lego Ninjago Movie 2017 720p HC HDRip X264 AC3"

The Lego Ninjago Movie 2017 720p HC HDRip X264 AC3

To download this torrent, you need a BitTorrent client: Vuze or BTGuard
Download this torrent
Download using Magnet Link

Direct Download - no client needed

Download Faster - High Speed Download

Health:
Seeds: 315
Leechers: 155
Completed: 698 
Last Checked: 13-10-2017 06:47:20

Uploader Reputation points : 504
External: Torrent




Write a Review for the Uploader:   0   Say Thanks with one good review:


Details
Name:The Lego Ninjago Movie 2017 720p HC HDRip X264 AC3
Description:


General
Format                                   : Matroska
Format version                           : Version 4 / Version 2
File size                                : 713 MiB
Duration                                 : 1 h 37 min
Overall bit rate                         : 1 025 kb/s

Video
ID                                       : 1
Format                                   : AVC
Format/Info                              : Advanced Video Codec
Format profile                           : [email protected]
Format settings                          : CABAC / 4 Ref Frames
Format settings, CABAC                   : Yes
Format settings, RefFrames               : 4 frames
Codec ID                                 : V_MPEG4/ISO/AVC
Duration                                 : 1 h 37 min
Bit rate                                 : 900 kb/s
Width                                    : 1 280 pixels
Height                                   : 528 pixels
Display aspect ratio                     : 2.40:1
Frame rate mode                          : Constant
Frame rate                               : 25.000 FPS
Color space                              : YUV
Chroma subsampling                       : 4:2:0
Bit depth                                : 8 bits
Scan type                                : Progressive
Bits/(Pixel*Frame)                       : 0.053
Stream size                              : 623 MiB (87%)
Writing library                          : x264 core 148 r2643 5c65704
Default                                  : Yes
Forced                                   : No

Audio
ID                                       : 2
Format                                   : AC-3
Format/Info                              : Audio Coding 3
Format settings, Endianness              : Big
Codec ID                                 : A_AC3
Duration                                 : 1 h 37 min
Bit rate mode                            : Constant
Bit rate                                 : 128 kb/s
Channel(s)                               : 2 channels
Channel positions                        : Front: L R
Sampling rate                            : 44.1 kHz
Frame rate                               : 28.711 FPS (1536 SPF)
Bit depth                                : 16 bits
Compression mode                         : Lossy
Stream size                              : 89.0 MiB (12%)
Service kind                             : Complete Main
Default                                  : Yes
Forced                                   : No






YouTube Video:
Category:Movies
Language:English  English
Total Size:713.09 MB
Info Hash:81106A48C13B10E3E9B3993E034D17D7C9E7A192
Added By:MovieFreak
Date Added:12-10-2017 23:03:49
Torrent Status:Unverified Torrent


Ratings:Not Yet Rated (Log in to rate it)


Tracker:
http://ipv4.tracker.harry.lu/announce

This Torrent also has backup trackers
URLSeedersLeechersCompleted
http://ipv4.tracker.harry.lu/announce261179
http://ipv4.tracker.harry.lu:80/announce261179
udp://tracker.pirateparty.gr:6969/announce281878
http://tracker.devil-torrents.pl:80/announce23100
http://tracker.devil-torrents.pl/announce23100
http://open.kickasstracker.com/announce24130
http://open.kickasstracker.com:443/announce24130
udp://p4p.arenabg.com:1337/announce211038
udp://9.rarbg.me:2770/announce219146
udp://9.rarbg.com:2740/announce219146
udp://9.rarbg.to:2750/announce000
udp://tracker.coppersurfer.tk:6969/announce281878
udp://tracker.leechers-paradise.org:6969/announce271354
udp://tracker.zer0day.to:1337/announce000
http://tracker.devil-torrents.pl/announce23100


File List: 





Comments
No comments still posted