Login
Username:
Password:
Remember Me:
[Signup]
[Recover Account]
Friends
BTScene
Friendly site

Ale Torrenty Team
Friendly site

Anime RG
Friendly site

KaranPC
Friendly site

P2PDL.com
Friendly site

Free Tutorials & Courses
Friendly site
Torrent Details For "The Tournament 2009 720p Esub BluRay Dual Audio English Hindi GOPISAHI"

The Tournament 2009 720p Esub BluRay Dual Audio English Hindi GOPISAHI

To download this torrent, you need a BitTorrent client: Vuze or BTGuard
Download this torrent
Download using Magnet Link





Health:
Seeds: 0
Leechers: 0
Completed:
Last Checked: 11-02-2018 04:05:00

Uploader Reputation points : 2165
External: Torrent




Write a Review for the Uploader:   5   Say Thanks with one good review:


Details
Name:The Tournament 2009 720p Esub BluRay Dual Audio English Hindi GOPISAHI
Description:

Format                         : Matroska
Format version                 : Version 4 / Version 2
File size                      : 464 MiB
Duration                       : 1 h 35 min
Overall bit rate               : 680 kb/s
Movie name                     : The Tournament 2009 GOPISAHI

Video
Format                         : AVC
Codec ID                       : V_MPEG4/ISO/AVC
Duration                       : 1 h 35 min
Bit rate                       : 500 kb/s
Width                          : 1 280 pixels
Height                         : 720 pixels
Display aspect ratio           : 16:9
Frame rate mode                : Constant
Frame rate                     : 23.976 (24000/1001) FPS
Writing library                : x264 core 155 r2893 b00bcaf

Audio #1
Format                         : AAC
Duration                       : 1 h 35 min
Bit rate                       : 88.2 kb/s
Channel(s)                     : 6 channels
Channel positions              : Front: L C R, Side: L R, LFE
Sampling rate                  : 44.1 kHz
Frame rate                     : 43.066 FPS (1024 SPF)
Compression mode               : Lossy
Stream size                    : 60.1 MiB (13%)
Language                       : English

Audio #2
Format                         : AAC
Duration                       : 1 h 35 min
Bit rate                       : 89.5 kb/s
Channel(s)                     : 6 channels
Channel positions              : Front: L C R, Side: L R, LFE
Sampling rate                  : 44.1 kHz
Frame rate                     : 43.066 FPS (1024 SPF)
Compression mode               : Lossy
Stream size                    : 61.0 MiB (13%)
Language                       : Hindi

Text
Language                       : English


YouTube Video:
Category:Movies
Language:Hindi  Hindi
Total Size:463.56 MB
Info Hash:2CD5EDD1FED300F0DBBD598B772F7182A86E47E2
Added By:GOPISAHI Verified UploaderMovie Pirate
Date Added:11-02-2018 04:04:57
Torrent Status:Torrent Verified


Ratings:Not Yet Rated (Log in to rate it)


Tracker:
http://share.camoe.cn:8080/announce

This Torrent also has backup trackers
URLSeedersLeechersCompleted
http://share.camoe.cn:8080/announce000
udp://tracker.torrent.eu.org:451/announce000
http://retracker.bashtel.ru:80/announce000
http://retracker.spark-rostov.ru:80/announce000
udp://tracker.christianbro.pw:6969/announce000
udp://inferno.demonoid.pw:3418/announce000
http://tracker.city9x.com:2710/announce000
http://0d.kebhana.mx:443/announce000
http://tr.fuuko.net:443/announce000
http://tr.back.re:443/announce000
http://open.acgnxtracker.com:443/announce000
http://bt.dl1234.com:80/announce000
udp://tracker.tiny-vps.com:6969/announce000
udp://open.stealth.si:80/announce000
udp://thetracker.org:80/announce000
http://evening-badlands-6215.herokuapp.com:443/announce000
udp://tracker.leechers-paradise.org:6969/announce000
udp://pubt.in:2710/announce000
udp://tracker.coppersurfer.tk:6969/announce000
udp://retracker.coltel.ru:2710/announce000
http://linetorrent.xyz:443/announce000
udp://tracker.cypherpunks.ru:6969/announce000
udp://zephir.monocul.us:6969/announce000
udp://tracker.opentrackr.org:1337/announce000
udp://tracker.internetwarriors.net:1337/announce000
udp://tracker.zer0day.to:1337/announce000
udp://public.popcorn-tracker.org:6969/announce000
http://torrentsmd.com:8080/announce000
http://torrentsmd.eu:8080/announce000
udp://tracker.dutchtracking.com:6969/announce000
udp://tracker.swateam.org.uk:2710/announce000
http://zer0day.000webhostapp.com:443/announce000
udp://tracker.cyberia.is:6969/announce000
udp://9.rarbg.to:2730/announce000
http://p4p.arenabg.com:1337/announce000
udp://p4p.arenabg.com:1337/announce000
udp://tracker.opentrackr.org:1337/announce000
http://163.172.180.68:80/announce000
http://open.kickasstracker.com/announce000
http://retracker.mgts.by:80/announce000
http://tracker.torrentyorg.pl:80/announce000
udp://tracker.coppersurfer.tk:6969/announce000
udp://tracker.pirateparty.gr:6969/announce000


File List: 



Warning! Do not Download Torrents Without a VPN!
Your IP Address is .   Location is
Your Internet Provider and Government can track your torrent Activity! Hide your IP ADDRESS with a VPN!
We strongly recommend using SpyOFF VPN to anonymize your Torrenting.It's FREE!
START YOUR FREE TRIAL NOW!


Comments
No comments still posted