Login
Username:
Password:
Remember Me:
[Signup]
[Recover Account]
Friends
BTScene
Friendly site

Ale Torrenty Team
Friendly site

Anime RG
Friendly site

KaranPC
Friendly site

P2PDL.com
Friendly site

Free Tutorials & Courses
Friendly site
Torrent Details For "The.Transfiguration.2016.LIMITED.BRRip.XviD.AC3-iFT"

The.Transfiguration.2016.LIMITED.BRRip.XviD.AC3-iFT

To download this torrent, you need a BitTorrent client: Vuze or BTGuard
Download this torrent
Download using Magnet Link





Health:
Seeds: 17
Leechers: 0
Completed: 113 
Last Checked: 13-09-2017 06:29:20

Uploader Reputation points : 123802
External: Torrent




Write a Review for the Uploader:   60   Say Thanks with one good review:


Details
Name:The.Transfiguration.2016.LIMITED.BRRip.XviD.AC3-iFT
Description:
The.Transfiguration.2016.LIMITED.BRRip.XviD.AC3-iFT

ImDb: http://www.imdb.com/title/tt5039088



Complete name                            : The.Transfiguration.2016.LIMITED.BRRip.XviD.AC3-iFT.avi
Format                                   : AVI
Format/Info                              : Audio Video Interleave
Format profile                           : OpenDML
Format settings                          : rec
File size                                : 1.61 GiB
Duration                                 : 1 h 37 min
Overall bit rate                         : 2 364 kb/s
Writing application                      : AVI-Mux GUI 1.17.8.3, Feb 16 201019:42:50

Video
ID                                       : 0
Format                                   : MPEG-4 Visual
Format profile                           : Advanced [email protected]
Format settings, BVOP                    : 2
Format settings, QPel                    : No
Format settings, GMC                     : No warppoints
Format settings, Matrix                  : Default (H.263)
Muxing mode                              : Packed bitstream
Codec ID                                 : XVID
Codec ID/Hint                            : XviD
Duration                                 : 1 h 37 min
Bit rate                                 : 1 910 kb/s
Width                                    : 720 pixels
Height                                   : 304 pixels
Display aspect ratio                     : 2.35:1
Frame rate                               : 23.976 (24000/1001) FPS
Color space                              : YUV
Chroma subsampling                       : 4:2:0
Bit depth                                : 8 bits
Scan type                                : Progressive
Compression mode                         : Lossy
Bits/(Pixel*Frame)                       : 0.364
Stream size                              : 1.30 GiB (81%)
Writing library                          : XviD 73

Audio
ID                                       : 1
Format                                   : AC-3
Format/Info                              : Audio Coding 3
Format settings, Endianness              : Big
Codec ID                                 : 2000
Duration                                 : 1 h 37 min
Bit rate mode                            : Constant
Bit rate                                 : 448 kb/s
Channel(s)                               : 6 channels
Channel positions                        : Front: L C R, Side: L R, LFE
Sampling rate                            : 48.0 kHz
Frame rate                               : 31.250 FPS (1536 spf)
Bit depth                                : 16 bits
Compression mode                         : Lossy
Stream size                              : 312 MiB (19%)
Alignment                                : Aligned on interleaves
Interleave, duration                     : 64  ms (1.53 video frames)
Interleave, preload duration             : 192  ms
Title                                    : ac3
Service kind                             : Complete Main






Click To View Screenshot

Click To View Screenshot

Click To View Screenshot
YouTube Video:
Category:Movies
Language:English  English
Total Size:1.62 GB
Info Hash:468380E0C5BA0D656FC1C5F6B056A2B3D5EB125D
Added By:Simmoncelli VIPMovie Pirate
Date Added:13-08-2017 05:49:43
Torrent Status:Torrent Verified


Ratings:Not Yet Rated (Log in to rate it)


Tracker:
udp://tracker.coppersurfer.tk:6969/announce

This Torrent also has backup trackers
URLSeedersLeechersCompleted
udp://tracker.coppersurfer.tk:6969/announce2050
udp://tracker.pirateparty.gr:6969/announce2050
udp://shadowshq.yi.org:6969/announce200
udp://eddie4.nl:6969/announce200
udp://tracker.leechers-paradise.org:6969/announce200
udp://tracker.opentrackr.org:1337/announce100
udp://p4p.arenabg.ch:1337/announce000
udp://p4p.arenabg.com:1337/announce100
udp://9.rarbg.me:2710/announce000
udp://9.rarbg.to:2710/announce000
udp://ipv4.tracker.harry.lu:80/announce100
udp://tracker.grepler.com:6969/announce105
udp://public.popcorn-tracker.org:6969/announce108
udp://tracker.opentrackr.org:1337/announce100
udp://tracker.zer0day.to:1337/announce100


File List: 



Warning! Do not Download Torrents Without a VPN!
Your IP Address is .   Location is
Your Internet Provider and Government can track your torrent Activity! Hide your IP ADDRESS with a VPN!
We strongly recommend using SpyOFF VPN to anonymize your Torrenting.It's FREE!
START YOUR FREE TRIAL NOW!


Comments
No comments still posted