Login
Username:
Password:
Remember Me:
[Signup]
[Recover Account]
Friends
BTScene
Friendly site

Ale Torrenty Team
Friendly site

Anime RG
Friendly site

KaranPC
Friendly site

P2PDL.com
Friendly site

Free Tutorials & Courses
Friendly site
Torrent Details For "Tragedy Girls 2017 1080p WEB-DL DD 5 1 X264 ESubs"

Tragedy Girls 2017 1080p WEB-DL DD 5 1 X264 ESubs

To download this torrent, you need a BitTorrent client: Vuze or BTGuard
Download this torrent
Download using Magnet Link





Health:
Seeds: 187
Leechers: 281
Completed: 200 
Last Checked: 24-01-2018 13:58:25

Uploader Reputation points : 1842
External: Torrent




Write a Review for the Uploader:   10   Say Thanks with one good review:


Details
Name:Tragedy Girls 2017 1080p WEB-DL DD 5 1 X264 ESubs
Description:




General
Format                      : Matroska
Format version              : Version 4 / Version 2
File size                   : 1.57 GiB
Duration                    : 1 h 38 min
Overall bit rate            : 2 292 kb/s
Movie name                  : Tragedy Girls 2017 1080p WEB-DL DD 5.1 X264 ESubs [Torkat.ga]

Video
ID                          : 1
Format                      : AVC
Format/Info                 : Advanced Video Codec
Format profile              : [email protected]
Format settings             : CABAC / 4 Ref Frames
Format settings, CABAC      : Yes
Format settings, ReFrames   : 4 frames
Codec ID                    : V_MPEG4/ISO/AVC
Duration                    : 1 h 38 min
Bit rate                    : 2 000 kb/s
Width                       : 1 920 pixels
Height                      : 802 pixels
Display aspect ratio        : 2.40:1
Frame rate mode             : Constant
Frame rate                  : 23.976 (24000/1001) FPS
Color space                 : YUV
Chroma subsampling          : 4:2:0
Bit depth                   : 8 bits
Scan type                   : Progressive
Bits/(Pixel*Frame)          : 0.054
Stream size                 : 1.40 GiB (89%)
Writing library             : x264 core 148 r2708 86b7198
Default                     : Yes
Forced                      : No

Audio
ID                          : 2
Format                      : AC-3
Format/Info                 : Audio Coding 3
Codec ID                    : A_AC3
Duration                    : 1 h 38 min
Bit rate mode               : Constant
Bit rate                    : 256 kb/s
Channel(s)                  : 6 channels
Channel positions           : Front: L C R, Side: L R, LFE
Sampling rate               : 48.0 kHz
Frame rate                  : 31.250 FPS (1536 SPF)
Bit depth                   : 16 bits
Compression mode            : Lossy
Stream size                 : 180 MiB (11%)
Language                    : English
Service kind                : Complete Main
Default                     : Yes
Forced                      : No

Text #1
ID                          : 3
Format                      : UTF-8
Codec ID                    : S_TEXT/UTF8
Codec ID/Info               : UTF-8 Plain Text
Duration                    : 1 h 32 min
Bit rate                    : 63 b/s
Count of elements           : 1026
Stream size                 : 42.9 KiB (0%)
Language                    : Danish
Default                     : No
Forced                      : No

Text #2
ID                          : 4
Format                      : UTF-8
Codec ID                    : S_TEXT/UTF8
Codec ID/Info               : UTF-8 Plain Text
Duration                    : 1 h 32 min
Bit rate                    : 55 b/s
Count of elements           : 1022
Stream size                 : 37.6 KiB (0%)
Language                    : Finnish
Default                     : No
Forced                      : No

Text #3
ID                          : 5
Format                      : UTF-8
Codec ID                    : S_TEXT/UTF8
Codec ID/Info               : UTF-8 Plain Text
Duration                    : 1 h 34 min
Bit rate                    : 51 b/s
Count of elements           : 880
Stream size                 : 35.7 KiB (0%)
Language                    : Norwegian
Default                     : No
Forced                      : No

Text #4
ID                          : 6
Format                      : UTF-8
Codec ID                    : S_TEXT/UTF8
Codec ID/Info               : UTF-8 Plain Text
Duration                    : 1 h 36 min
Bit rate                    : 55 b/s
Count of elements           : 899
Stream size                 : 39.0 KiB (0%)
Language                    : Swedish
Default                     : No
Forced                      : No

Menu
00:00:00.000                : en:1
00:12:08.436                : en:2
00:24:34.222                : en:3
00:36:51.334                : en:4
00:49:08.446                : en:5
01:01:25.558                : en:6
01:13:42.670                : en:7
01:25:59.782                : en:8












YouTube Video:
Category:Movies
Language:English  English
Total Size:1.57 GB
Info Hash:D1C8C147AFBF9B39174FB5FC26AD6CBA448B18CD
Added By:MovieFreak Verified UploaderMovie Pirate
Date Added:24-01-2018 11:31:17
Torrent Status:Torrent Verified


Ratings:Not Yet Rated (Log in to rate it)


Tracker:
udp://tracker.coppersurfer.tk:6969/announce

This Torrent also has backup trackers
URLSeedersLeechersCompleted
udp://tracker.coppersurfer.tk:6969/announce152722
udp://tracker.leechers-paradise.org:6969/announce162321
udp://inferno.demonoid.pw:3391/announce141910
udp://tracker.tntvillage.scambioetico.org:2710/announce000
udp://tracker.pirateparty.gr:6969/announce152722
udp://9.rarbg.com:2770/announce141921
udp://public.popcorn-tracker.org:6969/announce122112
udp://tracker.zer0day.to:1337/announce162213
http://bigfoot1942.sektori.org:6969/announce000
udp://ipv4.tracker.harry.lu:80/announce8120
udp://shadowshq.yi.org:6969/announce162321
udp://tracker.vanitycore.co:6969/announce141913
udp://tracker.opentrackr.org:1337/announce152411
udp://explodie.org:6969/announce000
udp://tracker.zer0day.to:1337/announce162213
udp://tracker.leechers-paradise.org:6969/announce162321
udp://coppersurfer.tk:6969/announce000


File List: 



Warning! Do not Download Torrents Without a VPN!
Your IP Address is .   Location is
Your Internet Provider and Government can track your torrent Activity! Hide your IP ADDRESS with a VPN!
We strongly recommend using SpyOFF VPN to anonymize your Torrenting.It's FREE!
START YOUR FREE TRIAL NOW!


Comments
No comments still posted