Login
Username:
Password:
Remember Me:
[Signup]
[Recover Account]
Friends
BTScene
Friendly site

Ale Torrenty Team
Friendly site

Anime RG
Friendly site

KaranPC
Friendly site

P2PDL.com
Friendly site

Free Tutorials & Courses
Friendly site
Torrent Details For "Tremors.3.Back.to.Perfection.2001.720p.BluRay.x264-x0r"

Tremors.3.Back.to.Perfection.2001.720p.BluRay.x264-x0r

To download this torrent, you need a BitTorrent client: Vuze or BTGuard
Download this torrent
Download using Magnet Link





Health:
Seeds: 14
Leechers: 14
Completed:
Last Checked: 13-08-2017 02:15:31

Uploader Reputation points : 123802
External: Torrent




Write a Review for the Uploader:   60   Say Thanks with one good review:


Details
Name:Tremors.3.Back.to.Perfection.2001.720p.BluRay.x264-x0r
Description:
Tremors.3.Back.to.Perfection.2001.720p.BluRay.x264-x0r

ImDb: http://www.imdb.com/title/tt0259685



Complete name                            : Tremors.3.Back.to.Perfection.2001.720p.BluRay.x264-x0r.mkv
Format                                   : Matroska
Format version                           : Version 4 / Version 2
File size                                : 2.18 GiB
Duration                                 : 1 h 43 min
Overall bit rate                         : 3 010 kb/s
Movie name                               : Tremors.3:Back.to.Perfection.2001.720p.BluRay.x264-x0r
Encoded date                             : UTC 2017-08-12 23:52:15
Writing application                      : mkvmerge v7.7.0 ('Six Voices') 64bit built on Mar  1 2015 01:50:05
Writing library                          : libebml v1.3.1 + libmatroska v1.4.2

Video
ID                                       : 1
Format                                   : AVC
Format/Info                              : Advanced Video Codec
Format profile                           : [email protected]
Format settings, CABAC                   : Yes
Format settings, ReFrames                : 8 frames
Codec ID                                 : V_MPEG4/ISO/AVC
Duration                                 : 1 h 43 min
Bit rate                                 : 2 560 kb/s
Width                                    : 1 280 pixels
Height                                   : 720 pixels
Display aspect ratio                     : 16:9
Frame rate mode                          : Variable
Frame rate                               : 23.976 FPS
Color space                              : YUV
Chroma subsampling                       : 4:2:0
Bit depth                                : 8 bits
Scan type                                : Progressive
Bits/(Pixel*Frame)                       : 0.116
Stream size                              : 1.85 GiB (85%)
Writing library                          : x264 core 142 r2389 956c8d8
Encoding settings                        : cabac=1 / ref=8 / deblock=1:-2:-2 / analyse=0x3:0x113 / me=umh / subme=9 / psy=1 / psy_rd=1.00:0.25 / mixed_ref=0 / me_range=32 / chroma_me=1 / trellis=2 / 8x8dct=1 / cqm=0 / deadzone=6,6 / fast_pskip=0 / chroma_qp_offset=-4 / threads=12 / lookahead_threads=1 / sliced_threads=0 / nr=0 / decimate=0 / interlaced=0 / bluray_compat=0 / constrained_intra=0 / bframes=4 / b_pyramid=2 / b_adapt=2 / b_bias=0 / direct=3 / weightb=1 / open_gop=0 / weightp=2 / keyint=240 / keyint_min=24 / scenecut=40 / intra_refresh=0 / rc_lookahead=100 / rc=2pass / mbtree=1 / bitrate=2560 / ratetol=1.0 / qcomp=0.00 / qpmin=0 / qpmax=69 / qpstep=4 / cplxblur=20.0 / qblur=0.5 / vbv_maxrate=20000 / vbv_bufsize=25000 / nal_hrd=none / filler=0 / ip_ratio=1.10 / aq=1:1.00
Language                                 : English
Default                                  : Yes
Forced                                   : No
Color range                              : Limited
Color primaries                          : BT.709
Transfer characteristics                 : BT.709
Matrix coefficients                      : BT.709

Audio
ID                                       : 2
Format                                   : AC-3
Format/Info                              : Audio Coding 3
Format settings, Endianness              : Big
Codec ID                                 : A_AC3
Duration                                 : 1 h 43 min
Bit rate mode                            : Constant
Bit rate                                 : 448 kb/s
Channel(s)                               : 6 channels
Channel positions                        : Front: L C R, Side: L R, LFE
Sampling rate                            : 48.0 kHz
Frame rate                               : 31.250 FPS (1536 spf)
Bit depth                                : 16 bits
Compression mode                         : Lossy
Delay relative to video                  : -5 ms
Stream size                              : 332 MiB (15%)
Title                                    : Surround
Language                                 : English
Service kind                             : Complete Main
Default                                  : Yes
Forced                                   : No

Text
ID                                       : 3
Format                                   : UTF-8
Codec ID                                 : S_TEXT/UTF8
Codec ID/Info                            : UTF-8 Plain Text
Duration                                 : 1 h 38 min
Bit rate                                 : 62 b/s
Count of elements                        : 1447
Stream size                              : 45.1 KiB (0%)
Language                                 : English
Default                                  : Yes
Forced                                   : No

Menu
00:00:00.000                             : :Chapter 1
00:05:46.505                             : :Chapter 2
00:09:37.528                             : :Chapter 3
00:21:05.131                             : :Chapter 4
00:26:46.514                             : :Chapter 5
00:29:31.470                             : :Chapter 6
00:33:31.669                             : :Chapter 7
00:38:58.745                             : :Chapter 8
00:45:45.652                             : :Chapter 9
00:49:36.090                             : :Chapter 10
00:53:54.766                             : :Chapter 11
01:00:18.482                             : :Chapter 12
01:08:55.791                             : :Chapter 13
01:17:39.147                             : :Chapter 14
01:23:11.687                             : :Chapter 15
01:30:20.115                             : :Chapter 16
01:34:25.485                             : :Chapter 17
01:39:28.872                             : :Chapter 18






Click To View Screenshot

Click To View Screenshot

Click To View Screenshot
YouTube Video:
Category:Movies
Language:English  English
Total Size:2.18 GB
Info Hash:B99F8F2EA70E70E1521815DF02F0E7287C077FBF
Added By:Simmoncelli VIPMovie Pirate
Date Added:13-08-2017 02:10:02
Torrent Status:Torrent Verified


Ratings:Not Yet Rated (Log in to rate it)


Tracker:
udp://tracker.coppersurfer.tk:6969/announce

This Torrent also has backup trackers
URLSeedersLeechersCompleted
udp://tracker.coppersurfer.tk:6969/announce110
udp://tracker.pirateparty.gr:6969/announce110
udp://shadowshq.yi.org:6969/announce110
udp://eddie4.nl:6969/announce110
udp://tracker.leechers-paradise.org:6969/announce110
udp://tracker.opentrackr.org:1337/announce110
udp://p4p.arenabg.ch:1337/announce110
udp://p4p.arenabg.com:1337/announce110
udp://9.rarbg.me:2710/announce110
udp://9.rarbg.to:2710/announce110
udp://ipv4.tracker.harry.lu:80/announce110
udp://tracker.grepler.com:6969/announce110
udp://public.popcorn-tracker.org:6969/announce110
udp://tracker.opentrackr.org:1337/announce110
udp://tracker.zer0day.to:1337/announce000


File List: 



Warning! Do not Download Torrents Without a VPN!
Your IP Address is .   Location is
Your Internet Provider and Government can track your torrent Activity! Hide your IP ADDRESS with a VPN!
We strongly recommend using SpyOFF VPN to anonymize your Torrenting.It's FREE!
START YOUR FREE TRIAL NOW!


Comments
No comments still posted