Login
Username:
Password:
Remember Me:
[Signup]
[Recover Account]
Friends
BTScene
Friendly site

Ale Torrenty Team
Friendly site

Anime RG
Friendly site

KaranPC
Friendly site

P2PDL.com
Friendly site

Free Tutorials & Courses
Friendly site
Torrent Details For "War.For.The.Planet.Of.The.Apes.2017.720p.BRRiP.x264.AC3-MAJESTIC"

War.For.The.Planet.Of.The.Apes.2017.720p.BRRiP.x264.AC3-MAJESTIC

To download this torrent, you need a BitTorrent client: Vuze or BTGuard
Download this torrent
Download using Magnet Link





Health:
Seeds: 4
Leechers: 36
Completed:
Last Checked: 12-10-2017 20:15:53

Uploader Reputation points : 123802
External: Torrent




Write a Review for the Uploader:   60   Say Thanks with one good review:


Details
Name:War.For.The.Planet.Of.The.Apes.2017.720p.BRRiP.x264.AC3-MAJESTIC
Description:
War.For.The.Planet.Of.The.Apes.2017.720p.BRRiP.x264.AC3-MAJESTIC

ImDb: http://www.imdb.com/title/tt3450958



Complete name                            : War.For.The.Planet.Of.The.Apes.2017.720p.BRRiP.x264.AC3-MAJESTIC.mkv
Format                                   : Matroska
Format version                           : Version 4 / Version 2
File size                                : 3.86 GiB
Duration                                 : 2 h 20 min
Overall bit rate                         : 3 939 kb/s
Encoded date                             : UTC 2017-10-12 17:48:29
Writing application                      : mkvmerge v9.2.0 ('Photograph') 64bit
Writing library                          : libebml v1.3.3 + libmatroska v1.4.4

Video
ID                                       : 1
Format                                   : AVC
Format/Info                              : Advanced Video Codec
Format profile                           : [email protected]
Format settings, CABAC                   : Yes
Format settings, ReFrames                : 5 frames
Codec ID                                 : V_MPEG4/ISO/AVC
Duration                                 : 2 h 20 min
Bit rate                                 : 3 299 kb/s
Width                                    : 1 280 pixels
Height                                   : 534 pixels
Display aspect ratio                     : 2.40:1
Frame rate mode                          : Constant
Frame rate                               : 23.976 (24000/1001) FPS
Color space                              : YUV
Chroma subsampling                       : 4:2:0
Bit depth                                : 8 bits
Scan type                                : Progressive
Bits/(Pixel*Frame)                       : 0.201
Stream size                              : 3.23 GiB (84%)
Writing library                          : x264 core 148 r2694 3b70645
Encoding settings                        : cabac=1 / ref=5 / deblock=1:0:0 / analyse=0x3:0x113 / me=umh / subme=7 / psy=1 / psy_rd=1.00:0.00 / mixed_ref=1 / me_range=32 / chroma_me=1 / trellis=2 / 8x8dct=1 / cqm=0 / deadzone=21,11 / fast_pskip=1 / chroma_qp_offset=-2 / threads=12 / lookahead_threads=2 / sliced_threads=0 / nr=0 / decimate=1 / interlaced=0 / bluray_compat=0 / constrained_intra=0 / bframes=5 / b_pyramid=2 / b_adapt=1 / b_bias=0 / direct=1 / weightb=1 / open_gop=0 / weightp=2 / keyint=250 / keyint_min=23 / scenecut=40 / intra_refresh=0 / rc_lookahead=40 / rc=2pass / mbtree=1 / bitrate=3299 / ratetol=1.0 / qcomp=0.60 / qpmin=0 / qpmax=69 / qpstep=4 / cplxblur=20.0 / qblur=0.5 / vbv_maxrate=6200 / vbv_bufsize=58199 / nal_hrd=none / filler=0 / ip_ratio=1.40 / aq=1:1.00
Default                                  : Yes
Forced                                   : No

Audio
ID                                       : 2
Format                                   : AC-3
Format/Info                              : Audio Coding 3
Format settings, Endianness              : Big
Codec ID                                 : A_AC3
Duration                                 : 2 h 20 min
Bit rate mode                            : Constant
Bit rate                                 : 640 kb/s
Channel(s)                               : 6 channels
Channel positions                        : Front: L C R, Side: L R, LFE
Sampling rate                            : 48.0 kHz
Frame rate                               : 31.250 FPS (1536 spf)
Bit depth                                : 16 bits
Compression mode                         : Lossy
Stream size                              : 642 MiB (16%)
Language                                 : English
Service kind                             : Complete Main
Default                                  : No
Forced                                   : No

Text #1
ID                                       : 3
Format                                   : UTF-8
Codec ID                                 : S_TEXT/UTF8
Codec ID/Info                            : UTF-8 Plain Text
Duration                                 : 2 h 8 min
Bit rate                                 : 16 b/s
Count of elements                        : 761
Stream size                              : 15.6 KiB (0%)
Language                                 : English
Default                                  : No
Forced                                   : No

Text #2
ID                                       : 4
Format                                   : UTF-8
Codec ID                                 : S_TEXT/UTF8
Codec ID/Info                            : UTF-8 Plain Text
Duration                                 : 2 h 9 min
Bit rate                                 : 20 b/s
Count of elements                        : 1011
Stream size                              : 19.8 KiB (0%)
Language                                 : English
Default                                  : No
Forced                                   : No

Menu
00:00:00.000                             : en:00:00:00.000
00:05:05.889                             : en:00:05:05.889
00:09:06.713                             : en:00:09:06.713
00:12:14.108                             : en:00:12:14.108
00:18:21.017                             : en:00:18:21.017
00:25:04.503                             : en:00:25:04.503
00:30:17.399                             : en:00:30:17.399
00:34:13.093                             : en:00:34:13.093
00:37:46.347                             : en:00:37:46.347
00:42:54.447                             : en:00:42:54.447
00:49:31.802                             : en:00:49:31.802
00:54:14.626                             : en:00:54:14.626
00:58:49.818                             : en:00:58:49.818
01:05:24.129                             : en:01:05:24.129
01:10:18.381                             : en:01:10:18.381
01:14:53.823                             : en:01:14:53.823
01:18:59.193                             : en:01:18:59.193
01:25:35.672                             : en:01:25:35.672
01:29:37.372                             : en:01:29:37.372
01:34:22.824                             : en:01:34:22.824
01:39:27.712                             : en:01:39:27.712
01:43:48.222                             : en:01:43:48.222
01:48:45.394                             : en:01:48:45.394
01:55:20.580                             : en:01:55:20.580
01:58:04.703                             : en:01:58:04.703
02:02:33.930                             : en:02:02:33.930
02:05:54.797                             : en:02:05:54.797
02:12:51.213                             : en:02:12:51.213






Click To View Screenshot

Click To View Screenshot

Click To View Screenshot
YouTube Video:
Category:Movies
Language:English  English
Total Size:3.89 GB
Info Hash:8AF03BA32CE1E0AC3E5879D131D5822FC12E27C2
Added By:Simmoncelli VIPMovie Pirate
Date Added:12-10-2017 20:08:44
Torrent Status:Torrent Verified


Ratings:Not Yet Rated (Log in to rate it)


Tracker:
udp://tracker.coppersurfer.tk:6969/announce

This Torrent also has backup trackers
URLSeedersLeechersCompleted
udp://tracker.coppersurfer.tk:6969/announce060
udp://tracker.pirateparty.gr:6969/announce060
udp://shadowshq.yi.org:6969/announce050
udp://eddie4.nl:6969/announce050
udp://tracker.leechers-paradise.org:6969/announce050
udp://tracker.opentrackr.org:1337/announce110
udp://p4p.arenabg.ch:1337/announce010
udp://p4p.arenabg.com:1337/announce110
udp://9.rarbg.me:2710/announce120
udp://9.rarbg.to:2710/announce120
udp://ipv4.tracker.harry.lu:80/announce000
udp://tracker.grepler.com:6969/announce000
udp://public.popcorn-tracker.org:6969/announce010
udp://tracker.opentrackr.org:1337/announce110
udp://tracker.zer0day.to:1337/announce000


File List: 



Warning! Do not Download Torrents Without a VPN!
Your IP Address is .   Location is
Your Internet Provider and Government can track your torrent Activity! Hide your IP ADDRESS with a VPN!
We strongly recommend using SpyOFF VPN to anonymize your Torrenting.It's FREE!
START YOUR FREE TRIAL NOW!


Comments
No comments still posted