Login
Username:
Password:
Remember Me:
[Signup]
[Recover Account]
Friends
BTScene
Friendly site

Ale Torrenty Team
Friendly site

Anime RG
Friendly site

KaranPC
Friendly site

P2PDL.com
Friendly site

Free Tutorials & Courses
Friendly site
Torrent Details For "War for the Planet of the Apes 2017 brrip hevc-d3g."

War for the Planet of the Apes 2017 brrip hevc-d3g.

To download this torrent, you need a BitTorrent client: Vuze or BTGuard
Download this torrent
Download using Magnet Link

Direct Download - no client needed

Download Faster - High Speed Download

Health:
Seeds: 13
Leechers: 2
Completed:
Last Checked: 12-10-2017 12:16:00

Uploader Reputation points : 119446
External: Torrent




Write a Review for the Uploader:   55   Say Thanks with one good review:


Details
Name:War for the Planet of the Apes 2017 brrip hevc-d3g.
Description:
War for the Planet of the Apes 2017 brrip hevc-d3g.

ImDb: http://www.imdb.com/title/tt3450958



Complete name                            : War for the Planet of the Apes 2017 BRRip 1080p DD5.1 H265-d3g.mkv
Format                                   : Matroska
Format version                           : Version 4 / Version 2
File size                                : 2.74 GiB
Duration                                 : 2 h 20 min
Overall bit rate                         : 2 797 kb/s
Movie name                               : War for the Planet of the Apes 2017 BRRip 1080p DD5.1 H265-d3g
Encoded date                             : UTC 2017-10-12 10:31:35
Writing application                      : mkvmerge v16.0.0 ('Protest') 64-bit
Writing library                          : libebml v1.3.5 + libmatroska v1.4.8

Video
ID                                       : 1
Format                                   : HEVC
Format/Info                              : High Efficiency Video Coding
Format profile                           : [email protected]@Main
Codec ID                                 : V_MPEGH/ISO/HEVC
Duration                                 : 2 h 20 min
Bit rate                                 : 2 347 kb/s
Width                                    : 1 920 pixels
Height                                   : 800 pixels
Display aspect ratio                     : 2.40:1
Frame rate mode                          : Constant
Frame rate                               : 23.976 (24000/1001) FPS
Color space                              : YUV
Chroma subsampling                       : 4:2:0 (Type 1 / Type 0)
Bit depth                                : 8 bits
Bits/(Pixel*Frame)                       : 0.064
Stream size                              : 2.30 GiB (84%)
Default                                  : Yes
Forced                                   : No
Color range                              : Limited
Color primaries                          : BT.709
Transfer characteristics                 : BT.709
Matrix coefficients                      : BT.709

Audio
ID                                       : 2
Format                                   : AC-3
Format/Info                              : Audio Coding 3
Format settings, Endianness              : Big
Codec ID                                 : A_AC3
Duration                                 : 2 h 20 min
Bit rate mode                            : Constant
Bit rate                                 : 448 kb/s
Channel(s)                               : 6 channels
Channel positions                        : Front: L C R, Side: L R, LFE
Sampling rate                            : 48.0 kHz
Frame rate                               : 31.250 FPS (1536 spf)
Bit depth                                : 16 bits
Compression mode                         : Lossy
Stream size                              : 449 MiB (16%)
Language                                 : English
Service kind                             : Complete Main
Default                                  : Yes
Forced                                   : No

Text #1
ID                                       : 3
Format                                   : UTF-8
Codec ID                                 : S_TEXT/UTF8
Codec ID/Info                            : UTF-8 Plain Text
Duration                                 : 1 h 42 min
Bit rate                                 : 5 b/s
Count of elements                        : 192
Stream size                              : 4.29 KiB (0%)
Default                                  : Yes
Forced                                   : No

Text #2
ID                                       : 4
Format                                   : UTF-8
Codec ID                                 : S_TEXT/UTF8
Codec ID/Info                            : UTF-8 Plain Text
Duration                                 : 2 h 9 min
Bit rate                                 : 21 b/s
Count of elements                        : 1011
Stream size                              : 19.9 KiB (0%)
Default                                  : No
Forced                                   : No

Menu
00:00:00.000                             : en:00:00:00.000
00:05:05.889                             : en:00:05:05.889
00:09:06.713                             : en:00:09:06.713
00:12:14.107                             : en:00:12:14.108
00:18:21.017                             : en:00:18:21.017
00:25:04.503                             : en:00:25:04.503
00:30:17.399                             : en:00:30:17.399
00:34:13.093                             : en:00:34:13.093
00:37:46.347                             : en:00:37:46.347
00:42:54.447                             : en:00:42:54.447
00:49:31.802                             : en:00:49:31.802
00:54:14.626                             : en:00:54:14.626
00:58:49.818                             : en:00:58:49.818
01:05:24.129                             : en:01:05:24.129
01:10:18.381                             : en:01:10:18.381
01:14:53.823                             : en:01:14:53.823
01:18:59.193                             : en:01:18:59.193
01:25:35.671                             : en:01:25:35.672
01:29:37.372                             : en:01:29:37.372
01:34:22.823                             : en:01:34:22.824
01:39:27.712                             : en:01:39:27.712
01:43:48.222                             : en:01:43:48.222
01:48:45.394                             : en:01:48:45.394
01:55:20.580                             : en:01:55:20.580
01:58:04.703                             : en:01:58:04.703
02:02:33.930                             : en:02:02:33.930
02:05:54.797                             : en:02:05:54.797
02:12:51.213                             : en:02:12:51.213






Click To View Screenshot

Click To View Screenshot

Click To View Screenshot
YouTube Video:
Category:Movies
Language:English  English
Total Size:2.74 GB
Info Hash:555EF695154A925007AEB863B768B0CDF4E48D51
Added By:Simmoncelli VIPMovie Pirate
Date Added:12-10-2017 12:02:58
Torrent Status:Torrent Verified


Ratings:Not Yet Rated (Log in to rate it)


Tracker:
udp://tracker.coppersurfer.tk:6969/announce

This Torrent also has backup trackers
URLSeedersLeechersCompleted
udp://tracker.coppersurfer.tk:6969/announce110
udp://tracker.pirateparty.gr:6969/announce110
udp://shadowshq.yi.org:6969/announce100
udp://eddie4.nl:6969/announce100
udp://tracker.leechers-paradise.org:6969/announce100
udp://tracker.opentrackr.org:1337/announce100
udp://p4p.arenabg.ch:1337/announce100
udp://p4p.arenabg.com:1337/announce100
udp://9.rarbg.me:2710/announce100
udp://9.rarbg.to:2710/announce100
udp://ipv4.tracker.harry.lu:80/announce100
udp://tracker.grepler.com:6969/announce000
udp://public.popcorn-tracker.org:6969/announce100
udp://tracker.opentrackr.org:1337/announce100
udp://tracker.zer0day.to:1337/announce000


File List: 





Comments
No comments still posted