Login
Username:
Password:
Remember Me:
[Signup]
[Recover Account]
Friends
BTScene
Friendly site

Ale Torrenty Team
Friendly site

Anime RG
Friendly site

KaranPC
Friendly site

P2PDL.com
Friendly site

Free Tutorials & Courses
Friendly site
Torrent Details For "Wedding Crashers 2005 hevc-d3g."

Wedding Crashers 2005 hevc-d3g.

To download this torrent, you need a BitTorrent client: Vuze or BTGuard
Download this torrent
Download using Magnet Link





Health:
Seeds: 0
Leechers: 0
Completed:
Last Checked: 13-08-2017 05:23:04

Uploader Reputation points : 123802
External: Torrent




Write a Review for the Uploader:   60   Say Thanks with one good review:


Details
Name:Wedding Crashers 2005 hevc-d3g.
Description:
Wedding Crashers 2005 hevc-d3g.

ImDb: http://www.imdb.com/title/tt0396269



Complete name                            : Wedding Crashers 2005 ExtCut BluRay 1080p Dual H265-d3g.mkv
Format                                   : Matroska
Format version                           : Version 4 / Version 2
File size                                : 3.88 GiB
Duration                                 : 2 h 7 min
Overall bit rate mode                    : Variable
Overall bit rate                         : 4 373 kb/s
Movie name                               : Wedding Crashers 2005 ExtCut BluRay 1080p Dual H265-d3g
Encoded date                             : UTC 2017-08-08 14:48:15
Writing application                      : DVDFab 10.0.4.9
Writing library                          : libebml v1.3.4 + libmatroska v1.4.5

Video
ID                                       : 1
Format                                   : HEVC
Format/Info                              : High Efficiency Video Coding
Format profile                           : [email protected]@Main
Codec ID                                 : V_MPEGH/ISO/HEVC
Duration                                 : 2 h 7 min
Bit rate                                 : 2 164 kb/s
Width                                    : 1 920 pixels
Height                                   : 816 pixels
Display aspect ratio                     : 2.35:1
Frame rate mode                          : Constant
Frame rate                               : 23.976 (24000/1001) FPS
Color space                              : YUV
Chroma subsampling                       : 4:2:0 (Type 1 / Type 0)
Bit depth                                : 8 bits
Bits/(Pixel*Frame)                       : 0.058
Stream size                              : 1.92 GiB (49%)
Default                                  : Yes
Forced                                   : No
Color range                              : Full
Color primaries                          : BT.709
Transfer characteristics                 : BT.709
Matrix coefficients                      : BT.709

Audio #1
ID                                       : 2
Format                                   : TrueHD
Codec ID                                 : A_TRUEHD
Duration                                 : 2 h 6 min
Bit rate mode                            : Variable
Bit rate                                 : 1 487 kb/s
Maximum bit rate                         : 2 772 kb/s
Channel(s)                               : 6 channels
Channel positions                        : Front: L C R, Side: L R, LFE
Sampling rate                            : 48.0 kHz
Frame rate                               : 1 200.000 FPS (40 spf)
Compression mode                         : Lossless
Stream size                              : 1.32 GiB (34%)
Language                                 : English
Default                                  : Yes
Forced                                   : No

Audio #2
ID                                       : 3
Format                                   : AC-3
Format/Info                              : Audio Coding 3
Format settings, Endianness              : Big
Codec ID                                 : A_AC3
Duration                                 : 2 h 7 min
Bit rate mode                            : Constant
Bit rate                                 : 640 kb/s
Channel(s)                               : 6 channels
Channel positions                        : Front: L C R, Side: L R, LFE
Sampling rate                            : 48.0 kHz
Frame rate                               : 31.250 FPS (1536 spf)
Bit depth                                : 16 bits
Compression mode                         : Lossy
Stream size                              : 581 MiB (15%)
Language                                 : English
Service kind                             : Complete Main
Default                                  : No
Forced                                   : No

Text
ID                                       : 4
Format                                   : VobSub
Codec ID                                 : S_VOBSUB
Codec ID/Info                            : Picture based subtitle format used on DVDs
Duration                                 : 2 h 6 min
Bit rate                                 : 14.1 kb/s
Count of elements                        : 2122
Stream size                              : 12.8 MiB (0%)
Language                                 : English
Default                                  : No
Forced                                   : No

Menu
00:00:00.000                             : en:(01)00:00:00:000
00:03:39.552                             : en:(02)00:03:39:552
00:15:24.965                             : en:(03)00:15:24:965
00:23:46.800                             : en:(04)00:23:46:800
00:39:10.765                             : en:(05)00:39:10:765
00:44:01.221                             : en:(06)00:44:01:221
00:49:20.082                             : en:(07)00:49:20:082
00:52:51.042                             : en:(08)00:52:51:042
00:59:12.590                             : en:(09)00:59:12:590
01:06:22.645                             : en:(10)01:06:22:645
01:12:01.317                             : en:(11)01:12:01:317
01:19:05.157                             : en:(12)01:19:05:157
01:21:56.077                             : en:(13)01:21:56:077
01:26:19.507                             : en:(14)01:26:19:507
01:28:52.952                             : en:(15)01:28:52:952
01:35:18.587                             : en:(16)01:35:18:587
01:41:07.519                             : en:(17)01:41:07:519
01:47:54.885                             : en:(18)01:47:54:885
01:53:19.125                             : en:(19)01:53:19:125
02:00:49.617                             : en:(20)02:00:49:617
02:07:00.529                             : en:(21)02:07:00:529






Click To View Screenshot

Click To View Screenshot

Click To View Screenshot
YouTube Video:
Category:Movies
Language:English  English
Total Size:3.88 GB
Info Hash:FDD50A1FEDD0E51339505B7F84BB7E7EB7E454E8
Added By:Simmoncelli VIPMovie Pirate
Date Added:13-08-2017 05:23:04
Torrent Status:Torrent Verified


Ratings:Not Yet Rated (Log in to rate it)


Tracker:
udp://tracker.coppersurfer.tk:6969/announce

This Torrent also has backup trackers
URLSeedersLeechersCompleted
udp://tracker.coppersurfer.tk:6969/announce000
udp://tracker.pirateparty.gr:6969/announce000
udp://shadowshq.yi.org:6969/announce000
udp://eddie4.nl:6969/announce000
udp://tracker.leechers-paradise.org:6969/announce000
udp://tracker.opentrackr.org:1337/announce000
udp://p4p.arenabg.ch:1337/announce000
udp://p4p.arenabg.com:1337/announce000
udp://9.rarbg.me:2710/announce000
udp://9.rarbg.to:2710/announce000
udp://ipv4.tracker.harry.lu:80/announce000
udp://tracker.grepler.com:6969/announce000
udp://public.popcorn-tracker.org:6969/announce000
udp://tracker.opentrackr.org:1337/announce000
udp://tracker.zer0day.to:1337/announce000


File List: 



Warning! Do not Download Torrents Without a VPN!
Your IP Address is .   Location is
Your Internet Provider and Government can track your torrent Activity! Hide your IP ADDRESS with a VPN!
We strongly recommend using SpyOFF VPN to anonymize your Torrenting.It's FREE!
START YOUR FREE TRIAL NOW!


Comments
No comments still posted